[ Сегодня идет свободное скачивание без начисления Download ]


Статистика раздачи
Нет
 
   
 
Top  
 
 
-Отдел любви / The Love Section (2013) WEB-DLRip«Life is good, when you're in The Love Section.»- Русское название: Отдел любви
Оригинальное название: The Love Section
Год выпуска: 2013
Производство: США / Synergy Pictures, Goodness Films
Жанр: Драма, Мелодрама, Комедия
Перевод: Одноголосый закадровый, любительский
Озвучка / Автор перевода: А.Дольский
Субтитры: Отсутствуют
Режиссер: Ронни Уорнер
Продюсер: Ронни Уорнер
Актеры: Мехи Файфер,Брайан Хукс,Даветта Шервуд,Келлита Смит,Омар Бенсон Миллер,Танги Миллер,Тейяна Тейлор
Описание фильма:
Однажды Али, преуспевающий агент по продаже недвижимости, встречает Сандрину - мать-одиночку - и сразу же влюбляется в нее. И она сразу же отвечает ему взаимностью Казалось бы они нашли свое счастье, но вот Али подворачивается сделка, которая может навсегда изменить его жизнь, и тут выясняется, что его новые отношения несовместимы с карьерным ростом. Смогут ли влюбленные вместе преодолеть все препятствия? Или же всё, что останется от их романа - лишь разбитые сердца?

Продолжительность: 01:40:31
Качество видео: WEB-DLRip
Видеокодек: Xvid
Битрейт видео: ~1540 Kbit/s
Размер кадра: 720 x 400
Аудиокодек: AC3 5.1
Битрейт аудио: 384 Kbit/s

MediaInfo

Общее
Полное имя : D:\Торренты\ФИЛЬМЫ торента\Отдел любви.2013.WEBDLRip.avi
Формат : AVI
Формат/Информация : Audio Video Interleave
Размер файла : 1,36 Гбайт
Продолжительность : 1 ч. 40 м.
Общий поток : 1933 Кбит/сек
Название фильма : blabla
Программа кодирования : VirtualDubMod 1.5.10.2 (build 2540/release)
Библиотека кодирования : VirtualDubMod build 2540/release
Видео
Идентификатор : 0
Формат : MPEG-4 Visual
Профиль формата : Advanced Simple@L5
Параметр BVOP формата : 2
Параметр QPel формата : Нет
Параметр GMC формата : Без точки перехода
Параметр матрицы формата : Default (H.263)
Режим смешивания : Сжатый битовый поток
Идентификатор кодека : XVID
Идентификатор кодека/Подсказка : XviD
Продолжительность : 1 ч. 40 м.
Битрейт : 1540 Кбит/сек
Ширина : 720 пикс.
Высота : 400 пикс.
Соотношение сторон : 16:9
Частота кадров : 23,976 кадр/сек
Цветовое пространство : YUV
Подвыборка цветности : 4:2:0
Битовая глубина : 8 бит
Тип развёртки : Прогрессивная
Метод сжатия : С потерями
Бит/(Пиксели*Кадры) : 0.223
Размер потока : 1,08 Гбайт (80%)
Библиотека кодирования : XviD 64
Аудио
Идентификатор : 1
Формат : AC-3
Формат/Информация : Audio Coding 3
Расширение режима : CM (complete main)
Идентификатор кодека : 2000
Продолжительность : 1 ч. 40 м.
Вид битрейта : Постоянный
Битрейт : 384 Кбит/сек
Каналы : 6 каналов
Расположение каналов : Front: L C R, Side: L R, LFE
Частота : 48,0 КГц
Битовая глубина : 16 бит
Метод сжатия : С потерями
Размер потока : 276 Мбайт (20%)
Выравнивание : Разделение по промежуткам
Продолжительность промежутка : 42 мс. (1,00 видеокадр)
Время предзагрузки промежутка : 500 ms
Скриншоты:
Время раздачи: 24/7 по возможности

[Цитировать]

Топик был перенесен из форума Новинки кинопроката в форум Драма
Henkok



Показать сообщения:    

Текущее время: 09-Дек 03:04

Часовой пояс: UTC + 3


Вы не можете начинать темы
Вы не можете отвечать на сообщения
Вы не можете редактировать свои сообщения
Вы не можете удалять свои сообщения
Вы не можете голосовать в опросах
Вы не можете прикреплять файлы к сообщениям
Вы не можете скачивать файлы

!ВНИМАНИЕ!
Сайт не предоставляет электронные версии произведений, а занимается лишь коллекционированием и каталогизацией ссылок, присылаемых и публикуемых на форуме нашими читателями. Если вы являетесь правообладателем какого-либо представленного материала и не желаете, чтобы ссылка на него находилась в нашем каталоге, свяжитесь с нами, и мы незамедлительно удалим ее. Файлы для обмена на трекере предоставлены пользователями сайта, и администрация не несет ответственности за их содержание. Просьба не заливать файлы, защищенные авторскими правами, а также файлы нелегального содержания!