[ Сегодня идет свободное скачивание без начисления Download ]


Статистика раздачи
Нет
 
   
 
Top  
 
 
-Поймай меня, если сможешь / Catch Me If You Can (2002) DVD9- Русское название: Поймай меня, если сможешь
Оригинальное название: Catch Me If You Can
Год выпуска: 2002
Производство: США , Канада , DreamWorks SKG, Amblin Entertainment
Жанр: Драма, комедия, криминал, биография
Перевод: Дублированный
Язык субтитров: Русский, английский, шведский, датский, норвежский, финский, исландский, литовский, латышский, эстонский
Вид субтитров: Вшитые (отключаемые)

Дата мировой премьеры: 16 декабря 2002
Дата российской премьеры: 13 февраля 2003, «Ист-Вест»
Релиз на DVD: 14 апреля 2011, «ВС трейд»
Бюджет: $52 000 000
Маркетинг: $35 000 000
Cборы в СШA: $164 615 351
Cборы в мирe: + $187 498 961 = $352 114 312
Cборы в России: $2 427 426
Режиссер: Стивен Спилберг
Cценарий: Джефф Натансон, Фрэнк Эбегнейл мл. (...рассказ), Стэн Реддинг (...рассказ)
Актеры: Леонардо ДиКаприо, Том Хэнкс, Кристофер Уокен, Мартин Шин, Натали Бэй, Эми Адамс, Джеймс Бролин, Брайан Хау, Фрэнк Джон Хьюз, Стив Истин, Крис Эллис, Джон Финн, Дженнифер Гарнер, Нэнси Ленехан, Эллен Помпео и др.
Роли дублировали: Антон Макарский, Алексей Колган, Виктор Петров, Александр Воеводин, Анна Каменкова, Лариса Некипелова, Владимир Антоник, Александр Клюквин, Вячеслав Баранов, Андрей Мартынов, Алексей Борзунов, Марианна Шульц, Людмила Шувалова, Юрий Меншагин, Андрей Казанцев и др.
Описание фильма:
Фрэнк Эбэгнейл успел поработать врачом, адвокатом и пилотом на пассажирской авиалинии – и все это до достижения полного совершеннолетия в 21 год.
Мастер в обмане и жульничестве, он также обладал искусством подделки документов, что в конечном счете принесло ему миллионы долларов, которые он получил по фальшивым чекам. Агент ФБР Карл Хэнрэтти отдал бы все, чтобы схватить Фрэнка и привлечь к ответственности за свои деяния, но Фрэнк всегда опережает его на шаг, заставляя продолжать погоню.
«Поймай, если сможешь» основывается на автобиографической книге Фрэнка Эбэгнейла, в которой отражена хроника его непутевой жизни – как он, будучи тинейджером, убежал из дома и сумел обмануть всех, устраиваясь на работу то авиапилотом, то врачом, то адвокатом, то учителем в колледж, везде успешно подделывая чеки и получая по ним миллионы долларов.
Дополнительные материалы: Отсутствуют
Продолжительность: 02:14:57
Качество: DVD
Формат: DVD9
Видео кодек: MPEG-2
Битрейт видео: 5279 Кбит/сек
Размер кадра: 720x576@1024x576 PAL 16:9 VBR, Auto Letterboxed
Аудио#1: Английский АС-3 6.0 448 Кбит/сек 48,0 КГц 16 бит - оригинальный
Аудио#2: Английский DTS 6.0 755 Кбит/сек 48,0 КГц 16 бит - оригинальный
Аудио#3: Русский АС-3 6.0 384 Кбит/сек 48,0 КГц 16 бит - дубляж

Скриншоты меню



Скриншоты:

DVDInfo

Title: Poymay_menya_yesli_smozhesh'_DVD9
Size: 7.10 Gb ( 7 443 402,00 KBytes ) - DVD-9
Enabled regions: 1, 2, 3, 4, 5, 6, 7, 8
VTS_01 :
Play Length: 02:14:57
Video: PAL 16:9 (720x576) VBR, Auto Letterboxed
Audio:
English (Dolby AC3, 6 ch)
English (DTS, 6 ch)
Russian (Dolby AC3, 6 ch)
Subtitles:
English
Svenska
Dansk
Norsk
Suomi
Russian
Islenska
Estonian
Lithuanian
Latvian
English
Russian
VTS_02 :
Play Length: 00:00:21
Video: PAL 16:9 (720x576) VBR, Auto Letterboxed
Audio:
English (Dolby AC3, 2 ch)
English (DTS, 6 ch)
VTS_03 :
Play Length: 00:00:22
Video: PAL 4:3 (720x576) VBR
Audio:
English (Dolby AC3, 2 ch)

MediaInfo

Общее
Полное имя : M:\Poymay_menya_yesli_smozhesh'_DVD9\VIDEO_TS\VTS_01_1.VOB
Формат : MPEG-PS
Размер файла : 1024 Мбайт
Продолжительность : 20 м.
Режим общего битрейта : Переменный
Общий поток : 7005 Кбит/сек
Видео
Идентификатор : 224 (0xE0)
Формат : MPEG Video
Версия формата : Version 2
Профиль формата : Main@Main
Параметр BVOP формата : Да
Параметр матрицы формата : Выборочная
Параметр GOP формата : M=3, N=12
Продолжительность : 20 м.
Вид битрейта : Переменный
Битрейт : 5279 Кбит/сек
Максимальный битрейт : 9800 Кбит/сек
Ширина : 720 пикселей
Высота : 576 пикселей
Соотношение сторон : 16:9
Частота кадров : 25,000 кадров/сек
Стандарт вещания : PAL
Цветовое пространство : YUV
Субдискретизация насыщенности : 4:2:0
Битовая глубина : 8 бит
Метод сжатия : С потерями
Бит/(Пиксели*Кадры) : 0.509
Размер потока : 772 Мбайт (75%)
Аудио #1
Идентификатор : 189 (0xBD)-128 (0x80)
Формат : AC-3
Формат/Информация : Audio Coding 3
Расширение режима : CM (complete main)
Параметр Endianness формата : Big
Режим смешивания : DVD-Video
Продолжительность : 20 м.
Вид битрейта : Постоянный
Битрейт : 448 Кбит/сек
Каналы : 6 каналов
Расположение каналов : Front: L C R, Side: L R, LFE
Частота : 48,0 КГц
Битовая глубина : 16 бит
Метод сжатия : С потерями
Размер потока : 65,5 Мбайт (6%)
Аудио #2
Идентификатор : 189 (0xBD)-130 (0x82)
Формат : AC-3
Формат/Информация : Audio Coding 3
Расширение режима : CM (complete main)
Параметр Endianness формата : Big
Режим смешивания : DVD-Video
Продолжительность : 20 м.
Вид битрейта : Постоянный
Битрейт : 384 Кбит/сек
Каналы : 6 каналов
Расположение каналов : Front: L C R, Side: L R, LFE
Частота : 48,0 КГц
Битовая глубина : 16 бит
Метод сжатия : С потерями
Размер потока : 56,1 Мбайт (5%)
Аудио #3
Идентификатор : 189 (0xBD)-137 (0x89)
Формат : DTS
Формат/Информация : Digital Theater Systems
Режим : 16
Параметр Endianness формата : Big
Режим смешивания : DVD-Video
Продолжительность : 20 м.
Вид битрейта : Постоянный
Битрейт : 755 Кбит/сек
Каналы : 6 каналов
Расположение каналов : Front: L C R, Side: L R, LFE
Частота : 48,0 КГц
Битовая глубина : 16 бит
Метод сжатия : С потерями
Размер потока : 110 Мбайт (11%)
Текст #1
Идентификатор : 189 (0xBD)-32 (0x20)
Формат : RLE
Формат/Информация : Run-length encoding
Режим смешивания : DVD-Video
Продолжительность : 20 м.
Задержка видео : 2 с. 880 мс.
Текст #2
Идентификатор : 189 (0xBD)-33 (0x21)
Формат : RLE
Формат/Информация : Run-length encoding
Режим смешивания : DVD-Video
Текст #3
Идентификатор : 189 (0xBD)-34 (0x22)
Формат : RLE
Формат/Информация : Run-length encoding
Режим смешивания : DVD-Video
Текст #4
Идентификатор : 189 (0xBD)-35 (0x23)
Формат : RLE
Формат/Информация : Run-length encoding
Режим смешивания : DVD-Video
Текст #5
Идентификатор : 189 (0xBD)-36 (0x24)
Формат : RLE
Формат/Информация : Run-length encoding
Режим смешивания : DVD-Video
Текст #6
Идентификатор : 189 (0xBD)-37 (0x25)
Формат : RLE
Формат/Информация : Run-length encoding
Режим смешивания : DVD-Video
Текст #7
Идентификатор : 189 (0xBD)-38 (0x26)
Формат : RLE
Формат/Информация : Run-length encoding
Режим смешивания : DVD-Video
Текст #8
Идентификатор : 189 (0xBD)-39 (0x27)
Формат : RLE
Формат/Информация : Run-length encoding
Режим смешивания : DVD-Video
Текст #9
Идентификатор : 189 (0xBD)-40 (0x28)
Формат : RLE
Формат/Информация : Run-length encoding
Режим смешивания : DVD-Video
Текст #10
Идентификатор : 189 (0xBD)-41 (0x29)
Формат : RLE
Формат/Информация : Run-length encoding
Режим смешивания : DVD-Video
Меню
Время раздачи: 24/7 (по возможности)

[Цитировать]



Показать сообщения:    

Текущее время: 08-Дек 11:00

Часовой пояс: UTC + 3


Вы не можете начинать темы
Вы не можете отвечать на сообщения
Вы не можете редактировать свои сообщения
Вы не можете удалять свои сообщения
Вы не можете голосовать в опросах
Вы не можете прикреплять файлы к сообщениям
Вы не можете скачивать файлы

!ВНИМАНИЕ!
Сайт не предоставляет электронные версии произведений, а занимается лишь коллекционированием и каталогизацией ссылок, присылаемых и публикуемых на форуме нашими читателями. Если вы являетесь правообладателем какого-либо представленного материала и не желаете, чтобы ссылка на него находилась в нашем каталоге, свяжитесь с нами, и мы незамедлительно удалим ее. Файлы для обмена на трекере предоставлены пользователями сайта, и администрация не несет ответственности за их содержание. Просьба не заливать файлы, защищенные авторскими правами, а также файлы нелегального содержания!