[ Сегодня идет свободное скачивание без начисления Download ]


Статистика раздачи
Нет
 
   
 
Top  
 
 
-Молодой Адам / Young Adam (2003) DVD5- Русское название: Молодой Адам
Оригинальное название: Young Adam
Год выпуска: 2003
Жанр: Триллер, Драма, Криминал
Описание фильма:
В смертельном омуте лжи и первобытной страсти. 1950-е годы, Англия. Молодой бродяга Джо работает на барже, где живут Лэйс, его жена Элла и их сын. Когда-то Джо был писателем, но теперь он курсирует между Глазго и Эдинбургом, перевозя уголь. Однажды мужчины вылавливают из канала тело девушки. Никто не знает имени утопленницы, но Джо не спешит признаваться, что когда-то они были любовниками. Ее убили или она покончила с собой? Тайный роман Джо и Эллы усугубляет гнетущую обстановку на барже и кажется, что правда о прошлом Джо неминуемо всплывет на поверхность. Какова же его роль в судьбе несчастной? Ответ кроется на дне мрачной души Джо…
Режиссер: Дэвид МакКензи
Актеры: Юэн МакГрегор, Тильда Суинтон, Питер Муллан, Эмили Мортимер, Джек МакЭлхоун, Тереза Брэдли, Ивэн Стюарт, Стюарт МакКуорри, Полин Тернер, Алан Кук
Продолжительность: 01:33:44
Перевод: Многоголосый закадровый

Дата мировой премьеры: 16.05.2003
Дата российской премьеры: 21.08.2003

Награды и номинации

Европейская киноакадемия, 2003 год
Номинации (1):
Европейское открытие года (Дэвид МакКензи)Награды:2003 Премия Эдинбургского международного кинофестиваля Лучшее новое британское кино — Дэвид Маккензи
2004 Премия Британской Академии кино и телевидения Лучший фильм
Лучшая режиссура — Дэвид Маккензи
Лучшая мужская роль в шотл. фильме — Юэн Макгрегор
Лучшая женская роль в шотл. фильме — Тильда Суинтон
2004 Премия Общества кинокритиков Лондона Лучший дебют — Дэвид Маккензи
Номинации:
2003 Премия Британского независимого кино Лучший независимый фильм
Лучшая режиссура — Дэвид Маккензи
Лучший актёр — Юэн Макгрегор
Лучшая актриса — Тильда Суинтон
2003 Европейская премия в области кино Режиссёр года — Дэвид Маккензи
2004 Премия Британской гильдии режиссеров Лучшая режиссура — Дэвид Маккензи
2004 Премия «Империя» Лучший британский фильм
Лучший британский актёр — Юэн Макгрегор
Лучшая британская актриса — Эмили Мортимер

Дополнительные материалы.

"В смертельном омуте лжи и первобытной страсти."
Киноролик, Видеоролик, Рассказ о сьемках фильма "Молодой Адам", Фильмографии, Смотрите на DVD.

Знаете ли вы, что...

В версии фильма, предназначенной для проката в США, сцены, в которых Эван Макгрегор снимался полностью обнаженным, должны были быть вырезаны, однако актер настоял на их сохранении.
Видеокодек: MPEG-2
Битрейт видео: ~5785.47 kbps
Размер кадра: 720x576
Качество видео: DVD5Аудио1: Русский: AC3, 6 ch, 384 KbpsАудио2: Английский: AC3, 6 ch, 384 Kbps(Оригинал)Сэмпл: Ссылка

Двд инфо

Title: YOUNG_ADAM (2003)
Size: 4.33 Gb ( 4 539 470,00 KBytes ) - DVD-5
Enabled regions: 1, 2, 3, 4, 5, 6, 7, 8
VTS_01 :
Play Length: 00:00:01+00:00:39+00:00:42+00:00:31+00:00:43+00:00:32+00:00:36+00:01:51
Video: PAL 4:3 (720x576) VBR
Audio:
Russian (Dolby AC3, 6 ch)
English (Dolby AC3, 6 ch)
VTS_02 :
Play Length: 00:07:54
Video: PAL 4:3 (720x576) VBR
Audio:
Russian (Dolby AC3, 2 ch)
English (Dolby AC3, 2 ch)
VTS_03 :
Play Length: 01:33:44
Video: PAL 16:9 (720x576) VBR, Auto Letterboxed
Audio:
Russian (Dolby AC3, 6 ch)
English (Dolby AC3, 6 ch)
* Menus Information *
VIDEO_TS Menu
Video:
PAL 4:3 (720x576) VBR
Audio:
Not specified (Dolby AC3, 6 ch)
Russian Language Unit :
Title Menu
VTS_01 Menu
Video:
PAL 4:3 (720x576) VBR
Russian Language Unit :
Root Menu
Subpicture Menu
Audio Menu
Chapter (PTT) Menu
VTS_02 Menu
Video:
PAL 4:3 (720x576) VBR
Russian Language Unit :
Root Menu
Subpicture Menu
Audio Menu
Chapter (PTT) Menu
VTS_03 Menu
Video:
PAL 4:3 (720x576) VBR
Russian Language Unit :
Root Menu
Subpicture Menu
Audio Menu
Chapter (PTT) Menu

Медиа инфо

General
Complete name : Q:\YOUNG_ADAM (2003)\VIDEO_TS\VTS_03_1.VOB
Format : MPEG-PS
File size : 1 024 MiB
Duration : 25mn 34s
Overall bit rate : 5 597 Kbps
Video
ID : 224 (0xE0)
Format : MPEG Video
Format version : Version 2
Format profile : Main@Main
Format settings, BVOP : Yes
Format settings, Matrix : Default
Duration : 25mn 34s
Bit rate mode : Variable
Bit rate : 4 718 Kbps
Maximum bit rate : 8 300 Kbps
Width : 720 pixels
Height : 576 pixels
Display aspect ratio : 2.35:1
Frame rate : 25.000 fps
Standard : PAL
Color space : YUV
Chroma subsampling : 4:2:0
Bit depth : 8 bits
Scan type : Interlaced
Scan order : Top Field First
Compression mode : Lossy
Bits/(Pixel*Frame) : 0.455
Stream size : 863 MiB (84%)
Audio #1
ID : 189 (0xBD)-128 (0x80)
Format : AC-3
Format/Info : Audio Coding 3
Mode extension : CM (complete main)
Muxing mode : DVD-Video
Duration : 25mn 34s
Bit rate mode : Constant
Bit rate : 384 Kbps
Channel(s) : 6 channels
Channel positions : Front: L C R, Side: L R, LFE
Sampling rate : 48.0 KHz
Bit depth : 16 bits
Compression mode : Lossy
Stream size : 70.2 MiB (7%)
Audio #2
ID : 189 (0xBD)-129 (0x81)
Format : AC-3
Format/Info : Audio Coding 3
Mode extension : CM (complete main)
Muxing mode : DVD-Video
Duration : 25mn 34s
Bit rate mode : Constant
Bit rate : 384 Kbps
Channel(s) : 6 channels
Channel positions : Front: L C R, Side: L R, LFE
Sampling rate : 48.0 KHz
Bit depth : 16 bits
Compression mode : Lossy
Stream size : 70.2 MiB (7%)

Скриншоты меню

Скриншоты доп.мат

Скриншоты:

Время раздачи: Круглосуточно

[Цитировать]



Показать сообщения:    

Текущее время: 08-Дек 17:15

Часовой пояс: UTC + 3


Вы не можете начинать темы
Вы не можете отвечать на сообщения
Вы не можете редактировать свои сообщения
Вы не можете удалять свои сообщения
Вы не можете голосовать в опросах
Вы не можете прикреплять файлы к сообщениям
Вы не можете скачивать файлы

!ВНИМАНИЕ!
Сайт не предоставляет электронные версии произведений, а занимается лишь коллекционированием и каталогизацией ссылок, присылаемых и публикуемых на форуме нашими читателями. Если вы являетесь правообладателем какого-либо представленного материала и не желаете, чтобы ссылка на него находилась в нашем каталоге, свяжитесь с нами, и мы незамедлительно удалим ее. Файлы для обмена на трекере предоставлены пользователями сайта, и администрация не несет ответственности за их содержание. Просьба не заливать файлы, защищенные авторскими правами, а также файлы нелегального содержания!