[ Сегодня идет свободное скачивание без начисления Download ]


Статистика раздачи
Нет
 
   
 
Top  
 
 
-Стрекоза / Dragonfly (2002) DVD9- Русское название: Стрекоза
Оригинальное название: Dragonfly
Год выпуска: 2002
Жанр: Триллер, Драма
Описание фильма:
Жена доктора Джо Дэрроу Эмилия трагически погибла в Венесуэле. Чтобы забыться, Джо пытается полностью погрузиться в работу. Но его друзья крайне обеспокоены, замечая, что доктор постепенно сходит с ума.
Джо начинает чувствовать присутствие Эмили в доме и считает, что его жена связывается с ним через стрекоз, ведь стрекозы были своеобразным талисманом в ее жизни. В конце концов, Джо отправляется в Венесуэлу, чтобы отыскать там душу своей погибшей жены…
Режиссер: Том Шэдьяк / Tom Shadyac
Актеры: Кевин Костнер, Сюзанна Томпсон, Джо Мортон, Рон Рифкин, Кэти Бейтс, Роберт Бэйли мл.
Продолжительность: 01:40:03
Перевод: Дублированный | Авторский (одногоголосый закадровый) Шевцов | Авторский (одногоголосый закадровый) неизвестный
Язык субтитров: английский, итальянский, русский, испанский, португальский, немецкий, французский, русский (2 варианта)
Дополнительные материалы: фильм о создании фильма, комментарии режиссера, удаленные сцены, фильм о съемках

Видеокодек: MPEG-2
Битрейт видео: ~6713 Кбит/сек
Размер кадра: PAL 16:9 (720x576) VBR, Auto Letterboxed
Качество видео: DVD9
Аудио 1: Английское (Dolby AC3, 6 ch, 448Kbps) | Eng
Аудио 2: Русское (Dolby AC3, 6 ch, 448Kbps) | Дублированный R5
Аудио 3: Русское (Dolby AC3, 2 ch, 192 Kbps) | Авторский (одногоголосый закадровый) Шевцов
Аудио 4: Русское (Dolby AC3, 2 ch, 192 Kbps) | Авторский (одногоголосый закадровый) неизвестный
Аудио 5: Английское (Dolby AC3, 2 ch, 192 Kbps) | комментарии режиссера

Меню

Скриншоты:

DVDInfo

Title:
Size: 7.55 Gb ( 7 919 444 KBytes ) - DVD-9
Enabled regions: 1, 2, 3, 4, 5, 6, 7, 8
VTS_01 :
Play Length: 01:40:03+00:00:01
Video: PAL 16:9 (720x576) VBR, Auto Letterboxed
Audio:
English (Dolby AC3, 6 ch)
Russian (Dolby AC3, 6 ch)
Russian (Dolby AC3, 2 ch)
Russian (Dolby AC3, 2 ch)
English (Dolby AC3, 2 ch)
Subtitles:
English
Deutsch
Deutsch
Italiano
Francais
Espanol
Czech(Ceske)
Hrvatski
Magyar
Slovenian
Deutsch
Italiano
Deutsch
Italiano
Russian
Russian
VTS_02 :
Play Length:
Video: PAL 16:9 (720x576) VBR, Auto Letterboxed
VTS_03 :
Play Length: 00:00:01
Video: PAL 16:9 (720x576) VBR, Auto Letterboxed
VTS_04 :
Play Length: 00:00:01
Video: PAL 4:3 (720x576) VBR
Audio:
English (Dolby AC3, 2 ch)
Deutsch (Dolby AC3, 2 ch)
Italiano (Dolby AC3, 2 ch)
VTS_05 :
Play Length: 00:00:10
Video: PAL 16:9 (720x576) VBR, Auto Letterboxed
Audio:
English (Dolby AC3, 6 ch)
VTS_06 :
Play Length: 00:00:35+00:02:23+00:01:45+00:01:37+00:01:03+00:00:53+00:01:08+00:02:08
Video: PAL 4:3 (720x576) VBR
Audio:
English (Dolby AC3, 2 ch)
Subtitles:
Deutsch
Italiano
VTS_07 :
Play Length: 00:13:14+00:15:18
Video: PAL 4:3 (720x576) VBR
Audio:
English (Dolby AC3, 2 ch)
Subtitles:
Deutsch
Italiano
VTS_08 :
Play Length: 00:06:17
Video: PAL 4:3 (720x576) VBR
Audio:
English (Dolby AC3, 2 ch)
Subtitles:
Deutsch
Italiano

MediaInfo

Формат : MPEG-PS
Размер файла : 1024 Мбайт
Продолжительность : 17 м.
Режим общего битрейта : Переменный
Общий поток : 8351 Кбит/сек
Видео
Идентификатор : 224 (0xE0)
Формат : MPEG Video
Версия формата : Version 2
Профиль формата : Main@Main
Параметр BVOP формата : Да
Параметр матрицы формата : Выборочная
Продолжительность : 17 м.
Вид битрейта : Переменный
Битрейт : 6713 Кбит/сек
Максимальный битрейт : 7808 Кбит/сек
Ширина : 720 пикселей
Высота : 576 пикселей
Соотношение сторон : 16:9
Частота кадров : 25,000 кадров/сек
Стандарт вещания : PAL
Цветовое пространство : YUV
Субдискретизация насыщенности : 4:2:0
Битовая глубина : 8 бит
Тип развёртки : Прогрессивная
Порядок развёртки : Верхнее поле первое
Метод сжатия : С потерями
Бит/(Пиксели*Кадры) : 0.647
Размер потока : 823 Мбайт (80%)
Аудио #1
Идентификатор : 189 (0xBD)-128 (0x80)
Формат : AC-3
Формат/Информация : Audio Coding 3
Расширение режима : CM (complete main)
Режим смешивания : DVD-Video
Продолжительность : 17 м.
Вид битрейта : Постоянный
Битрейт : 448 Кбит/сек
Каналы : 6 каналов
Расположение каналов : Front: L C R, Side: L R, LFE
Частота : 48,0 КГц
Битовая глубина : 16 бит
Метод сжатия : С потерями
Размер потока : 54,9 Мбайт (5%)
Аудио #2
Идентификатор : 189 (0xBD)-129 (0x81)
Формат : AC-3
Формат/Информация : Audio Coding 3
Расширение режима : CM (complete main)
Режим смешивания : DVD-Video
Продолжительность : 17 м.
Вид битрейта : Постоянный
Битрейт : 448 Кбит/сек
Каналы : 6 каналов
Расположение каналов : Front: L C R, Side: L R, LFE
Частота : 48,0 КГц
Битовая глубина : 16 бит
Метод сжатия : С потерями
Размер потока : 54,9 Мбайт (5%)
Аудио #3
Идентификатор : 189 (0xBD)-130 (0x82)
Формат : AC-3
Формат/Информация : Audio Coding 3
Расширение режима : CM (complete main)
Режим смешивания : DVD-Video
Продолжительность : 17 м.
Вид битрейта : Постоянный
Битрейт : 192 Кбит/сек
Каналы : 2 канала
Расположение каналов : Front: L R
Частота : 48,0 КГц
Битовая глубина : 16 бит
Метод сжатия : С потерями
Размер потока : 23,5 Мбайт (2%)
Аудио #4
Идентификатор : 189 (0xBD)-131 (0x83)
Формат : AC-3
Формат/Информация : Audio Coding 3
Расширение режима : CM (complete main)
Режим смешивания : DVD-Video
Продолжительность : 17 м.
Вид битрейта : Постоянный
Битрейт : 192 Кбит/сек
Каналы : 2 канала
Расположение каналов : Front: L R
Частота : 48,0 КГц
Битовая глубина : 16 бит
Метод сжатия : С потерями
Размер потока : 23,5 Мбайт (2%)
Аудио #5
Идентификатор : 189 (0xBD)-132 (0x84)
Формат : AC-3
Формат/Информация : Audio Coding 3
Расширение режима : CM (complete main)
Режим смешивания : DVD-Video
Продолжительность : 17 м.
Вид битрейта : Постоянный
Битрейт : 192 Кбит/сек
Каналы : 2 канала
Расположение каналов : Front: L R
Частота : 48,0 КГц
Битовая глубина : 16 бит
Метод сжатия : С потерями
Размер потока : 23,5 Мбайт (2%)
Текст #1
Идентификатор : 189 (0xBD)-34 (0x22)
Формат : RLE
Формат/Информация : Run-length encoding
Режим смешивания : DVD-Video
Продолжительность : 16 м.
Задержка видео : 6 с. 800 мс.
Текст #2
Идентификатор : 189 (0xBD)-32 (0x20)
Формат : RLE
Формат/Информация : Run-length encoding
Режим смешивания : DVD-Video
Текст #3
Идентификатор : 189 (0xBD)-33 (0x21)
Формат : RLE
Формат/Информация : Run-length encoding
Режим смешивания : DVD-Video
Текст #4
Идентификатор : 189 (0xBD)-35 (0x23)
Формат : RLE
Формат/Информация : Run-length encoding
Режим смешивания : DVD-Video
Текст #5
Идентификатор : 189 (0xBD)-36 (0x24)
Формат : RLE
Формат/Информация : Run-length encoding
Режим смешивания : DVD-Video
Текст #6
Идентификатор : 189 (0xBD)-37 (0x25)
Формат : RLE
Формат/Информация : Run-length encoding
Режим смешивания : DVD-Video
Текст #7
Идентификатор : 189 (0xBD)-38 (0x26)
Формат : RLE
Формат/Информация : Run-length encoding
Режим смешивания : DVD-Video
Текст #8
Идентификатор : 189 (0xBD)-39 (0x27)
Формат : RLE
Формат/Информация : Run-length encoding
Режим смешивания : DVD-Video
Текст #9
Идентификатор : 189 (0xBD)-40 (0x28)
Формат : RLE
Формат/Информация : Run-length encoding
Режим смешивания : DVD-Video
Текст #10
Идентификатор : 189 (0xBD)-41 (0x29)
Формат : RLE
Формат/Информация : Run-length encoding
Режим смешивания : DVD-Video
Текст #11
Идентификатор : 189 (0xBD)-42 (0x2A)
Формат : RLE
Формат/Информация : Run-length encoding
Режим смешивания : DVD-Video
Текст #12
Идентификатор : 189 (0xBD)-43 (0x2B)
Формат : RLE
Формат/Информация : Run-length encoding
Режим смешивания : DVD-Video
Текст #13
Идентификатор : 189 (0xBD)-46 (0x2E)
Формат : RLE
Формат/Информация : Run-length encoding
Режим смешивания : DVD-Video
Текст #14
Идентификатор : 189 (0xBD)-47 (0x2F)
Формат : RLE
Формат/Информация : Run-length encoding
Режим смешивания : DVD-Video
Меню
Время раздачи: 24/7 - круглосуточно

[Цитировать]



Показать сообщения:    

Текущее время: 07-Дек 17:30

Часовой пояс: UTC + 3


Вы не можете начинать темы
Вы не можете отвечать на сообщения
Вы не можете редактировать свои сообщения
Вы не можете удалять свои сообщения
Вы не можете голосовать в опросах
Вы не можете прикреплять файлы к сообщениям
Вы не можете скачивать файлы

!ВНИМАНИЕ!
Сайт не предоставляет электронные версии произведений, а занимается лишь коллекционированием и каталогизацией ссылок, присылаемых и публикуемых на форуме нашими читателями. Если вы являетесь правообладателем какого-либо представленного материала и не желаете, чтобы ссылка на него находилась в нашем каталоге, свяжитесь с нами, и мы незамедлительно удалим ее. Файлы для обмена на трекере предоставлены пользователями сайта, и администрация не несет ответственности за их содержание. Просьба не заливать файлы, защищенные авторскими правами, а также файлы нелегального содержания!