[ Сегодня идет свободное скачивание без начисления Download ]


Статистика раздачи
Нет
 
   
 
Top  
 
 
-28 дней / 28 Days (2000) DVD9- Русское название: 28 дней
Оригинальное название: 28 Days
Производство: США
Год выпуска: 2000
Жанр: Драма, Комедия
Описание фильма:
Как должна вести себя молодая, избалованная славой и деньгами писательница? Гвен Каммингс решила, что ей можно все: расстроить свадьбу сестры, напившись до полусмерти, угнать лимузин, разнести вдребезги соседский дом. Но реабилитационный центр для хронических алкоголиков, по мнению нью-йоркского суда, должен ее отрезвить. За 28 дней ей предстоит стать совсем другим человеком.
Режиссер: Бетти Томас
Актеры: Сандра Баллок, Вигго Мортенсен, Доминик Уэст, Элизабет Перкинс, Азура Скай, Стив Бушеми, Алан Тьюдик, Майк О’Мэлли, Марианн Жан-Баптист, Рени Сантони ...
Продолжительность: 01:39:45
Перевод: Многоголосый закадровый
Язык субтитров: английский, русский, хинди
Вид субтитров: Вшитые отключаемые

Дата мировой премьеры: 8 февраля 2000
Видеокодек: MPEG-2
Битрейт видео: ~5254 kb/s
Размер кадра: [email protected] (PAL 16:9) VBR Auto Letterboxed
Качество видео: DVD9
Аудио: (Dolby AC3, 6 ch) ~448 kb/s |Русский, многоголосый закадровый|
Аудио: (Dolby AC3, 6 ch) ~448 kb/s |Английский, оригинальный|
Аудио: (Dolby AC3, 2 ch) ~192 kb/s |Английский (комментарии)|
СЭМПЛ
Дополнительные материалы: Трейлер; "Санта Круз"-мыльная опера в рамках 28 дней; О фильме

DVDInfo

Title: 28 дней.2000.DVD9
Size: 6.41 Gb ( 6 719 956,00 KBytes ) - DVD-9
Enabled regions: 1, 2, 3, 4, 5, 6, 7, 8
VTS_01 :
Play Length: 01:39:45
Video: PAL 16:9 (720x576) VBR, Auto Letterboxed
Audio:
Russian (Dolby AC3, 6 ch)
English (Dolby AC3, 6 ch)
English (Dolby AC3, 2 ch)
Subtitles:
English
Russian
Hindi
VTS_02 :
Play Length: 00:01:33
Video: PAL 4:3 (720x576) VBR
Audio:
English (Dolby AC3, 6 ch)
VTS_03 :
Play Length: 00:01:19
Video: PAL 4:3 (720x576) VBR
Audio:
English (Dolby AC3, 2 ch)
VTS_04 :
Play Length: 00:02:21
Video: PAL 4:3 (720x576) VBR
Audio:
English (Dolby AC3, 2 ch)
VTS_05 :
Play Length: 00:15:02
Video: PAL 4:3 (720x576) VBR
Audio:
English (Dolby AC3, 2 ch)
VTS_06 :
Play Length: 00:01:23
Video: PAL 4:3 (720x576) VBR
Audio:
English (Dolby AC3, 2 ch)
VTS_07 :
Play Length: 00:24:31
Video: PAL 4:3 (720x576) VBR
Audio:
English (Dolby AC3, 2 ch)
VTS_08 :
Play Length: 00:03:50
Video: PAL 4:3 (720x576) VBR
Audio:
English (Dolby AC3, 2 ch)
* Menus Information *
VIDEO_TS Menu
Video:
PAL 4:3 (720x576) VBR
Audio:
Not specified (Dolby AC3, 6 ch)
Russian Language Unit :
Language Unit :
VTS_01 Menu
Video:
PAL 4:3 (720x576) VBR
Russian Language Unit :
Root Menu
Subpicture Menu
Audio Menu
Chapter (PTT) Menu
Language Unit :
VTS_02 Menu
Video:
PAL 4:3 (720x576) VBR
Russian Language Unit :
Root Menu
VTS_03 Menu
Video:
PAL 4:3 (720x576) VBR
Russian Language Unit :
Root Menu
VTS_04 Menu
Video:
PAL 4:3 (720x576) VBR
Russian Language Unit :
Root Menu
VTS_05 Menu
Video:
PAL 4:3 (720x576) VBR
Russian Language Unit :
Root Menu
VTS_06 Menu
Video:
PAL 4:3 (720x576) VBR
Russian Language Unit :
Root Menu
VTS_07 Menu
Video:
PAL 4:3 (720x576) VBR
Russian Language Unit :
Root Menu
VTS_08 Menu
Video:
PAL 4:3 (720x576) VBR
English Language Unit :
Root Menu

MediaInfo

Формат : MPEG-PS
Размер файла : 1024 Мбайт
Продолжительность : 22 м.
Общий поток : 6470 Кбит/сек
Видео
Идентификатор : 224 (0xE0)
Формат : MPEG Video
Версия формата : Version 2
Профиль формата : [email protected]
Параметр BVOP формата : Да
Параметр матрицы формата : Выборочная
Параметр GOP формата : M=3, N=12
Продолжительность : 22 м.
Вид битрейта : Переменный
Битрейт : 5254 Кбит/сек
Максимальный битрейт : 9800 Кбит/сек
Ширина : 720 пикселей
Высота : 576 пикселей
Соотношение сторон : 16:9
Частота кадров : 25,000 кадров/сек
Стандарт вещания : PAL
Цветовое пространство : YUV
Субдискретизация насыщенности : 4:2:0
Битовая глубина : 8 бит
Тип развёртки : Чересстрочная
Порядок развёртки : Верхнее поле первое
Метод сжатия : С потерями
Бит/(Пиксели*Кадры) : 0.507
Размер потока : 831 Мбайт (81%)
Аудио #1
Идентификатор : 189 (0xBD)-128 (0x80)
Формат : AC-3
Формат/Информация : Audio Coding 3
Расширение режима : CM (complete main)
Режим смешивания : DVD-Video
Продолжительность : 22 м.
Вид битрейта : Постоянный
Битрейт : 448 Кбит/сек
Каналы : 6 каналов
Расположение каналов : Front: L C R, Side: L R, LFE
Частота : 48,0 КГц
Битовая глубина : 16 бит
Метод сжатия : С потерями
Задержка видео : -608 мс.
Размер потока : 70,9 Мбайт (7%)
Аудио #2
Идентификатор : 189 (0xBD)-129 (0x81)
Формат : AC-3
Формат/Информация : Audio Coding 3
Расширение режима : CM (complete main)
Режим смешивания : DVD-Video
Продолжительность : 22 м.
Вид битрейта : Постоянный
Битрейт : 448 Кбит/сек
Каналы : 6 каналов
Расположение каналов : Front: L C R, Side: L R, LFE
Частота : 48,0 КГц
Битовая глубина : 16 бит
Метод сжатия : С потерями
Задержка видео : -608 мс.
Размер потока : 70,9 Мбайт (7%)
Аудио #3
Идентификатор : 189 (0xBD)-130 (0x82)
Формат : AC-3
Формат/Информация : Audio Coding 3
Профиль формата : Dolby Digital
Расширение режима : CM (complete main)
Режим смешивания : DVD-Video
Продолжительность : 22 м.
Вид битрейта : Постоянный
Битрейт : 192 Кбит/сек
Каналы : 2 канала
Расположение каналов : Front: L R
Частота : 48,0 КГц
Битовая глубина : 16 бит
Метод сжатия : С потерями
Задержка видео : -576 мс.
Размер потока : 30,4 Мбайт (3%)
Текст #1
Идентификатор : 189 (0xBD)-32 (0x20)
Формат : RLE
Формат/Информация : Run-length encoding
Режим смешивания : DVD-Video
Текст #2
Идентификатор : 189 (0xBD)-33 (0x21)
Формат : RLE
Формат/Информация : Run-length encoding
Режим смешивания : DVD-Video
Текст #3
Идентификатор : 189 (0xBD)-34 (0x22)
Формат : RLE
Формат/Информация : Run-length encoding
Режим смешивания : DVD-Video
Меню

Скриншоты меню

Скриншоты:
Время раздачи: 15:00-20:00

[Цитировать]



Показать сообщения:    

Текущее время: 06-Дек 15:11

Часовой пояс: UTC + 3


Вы не можете начинать темы
Вы не можете отвечать на сообщения
Вы не можете редактировать свои сообщения
Вы не можете удалять свои сообщения
Вы не можете голосовать в опросах
Вы не можете прикреплять файлы к сообщениям
Вы не можете скачивать файлы

!ВНИМАНИЕ!
Сайт не предоставляет электронные версии произведений, а занимается лишь коллекционированием и каталогизацией ссылок, присылаемых и публикуемых на форуме нашими читателями. Если вы являетесь правообладателем какого-либо представленного материала и не желаете, чтобы ссылка на него находилась в нашем каталоге, свяжитесь с нами, и мы незамедлительно удалим ее. Файлы для обмена на трекере предоставлены пользователями сайта, и администрация не несет ответственности за их содержание. Просьба не заливать файлы, защищенные авторскими правами, а также файлы нелегального содержания!