[ Сегодня идет свободное скачивание без начисления Download ]


Статистика раздачи
Нет
 
   
 
Top  
 
 
-Клиника / The Facility (2012) DVDRip- Русское название: Клиника
Оригинальное название: The Facility
Год выпуска: 2012
Производство: Великобритания
Жанр: Ужасы, Фантастика-Описание фильма:
Восемь добровольцев вынуждены бороться за свою жизнь, когда испытание нового медицинского препарата вызывает непредвиденную реакцию.-Режиссер: Йен Кларк
Актеры: Алекс Рид, Анайрин Барнард, Крис Ларкин, Стив Эветс, Джек Дулан, Оливер Коулмэн, Амит Шах, Ниа Робертс, Скай Лоури, Эмили Баттерфилд-Продолжительность: 01:19:25
Перевод: Двуголосый закадровый (DeadSno & den904)- -Дата мировой премьеры: 23 июня 2012-Видеокодек: Xvid
Битрейт видео: ~1058 kb/s
Размер кадра: 640x272
Качество видео: DVDRip
Аудиокодек: MP3 (2 ch)
Битрейт аудио: 160 kb/s

MediaInfo

Общее
Полное имя : D:\Торрент раздача\The.Facility.2012.L2.DVDRip.700MB.avi
Формат : AVI
Формат/Информация : Audio Video Interleave
Размер файла : 697 Мбайт
Продолжительность : 1 ч. 19 м.
Общий поток : 1228 Кбит/сек
Программа кодирования : VirtualDubMod 1.5.10.2 (build 2540/release)
Библиотека кодирования : VirtualDubMod build 2540/release
Видео
Идентификатор : 0
Формат : MPEG-4 Visual
Профиль формата : Advanced Simple@L5
Параметр BVOP формата : 2
Параметр QPel формата : Нет
Параметр GMC формата : Без точки перехода
Параметр матрицы формата : Default (H.263)
Идентификатор кодека : XVID
Идентификатор кодека/Подсказка : XviD
Продолжительность : 1 ч. 19 м.
Битрейт : 1058 Кбит/сек
Ширина : 640 пикселей
Высота : 272 пикселя
Соотношение сторон : 2,35:1
Частота кадров : 25,000 кадров/сек
Цветовое пространство : YUV
Субдискретизация насыщенности : 4:2:0
Битовая глубина : 8 бит
Тип развёртки : Прогрессивная
Метод сжатия : С потерями
Бит/(Пиксели*Кадры) : 0.243
Размер потока : 601 Мбайт (86%)
Библиотека кодирования : XviD 64
Аудио
Идентификатор : 1
Формат : MPEG Audio
Версия формата : Version 1
Профиль формата : Layer 3
Идентификатор кодека : 55
Идентификатор кодека/Подсказка : MP3
Продолжительность : 1 ч. 19 м.
Вид битрейта : Постоянный
Битрейт : 160 Кбит/сек
Каналы : 2 канала
Частота : 44,1 КГц
Метод сжатия : С потерями
Размер потока : 90,9 Мбайт (13%)
Выравнивание : Разделение по промежуткам
Продолжительность промежутка : 40 мс. (1,00 видеокадр)
Время предзагрузки промежутка : 500 мс.
Скриншоты:
Время раздачи: 24/7

[Цитировать]



Показать сообщения:    

Текущее время: 08-Дек 03:10

Часовой пояс: UTC + 3


Вы не можете начинать темы
Вы не можете отвечать на сообщения
Вы не можете редактировать свои сообщения
Вы не можете удалять свои сообщения
Вы не можете голосовать в опросах
Вы не можете прикреплять файлы к сообщениям
Вы не можете скачивать файлы

!ВНИМАНИЕ!
Сайт не предоставляет электронные версии произведений, а занимается лишь коллекционированием и каталогизацией ссылок, присылаемых и публикуемых на форуме нашими читателями. Если вы являетесь правообладателем какого-либо представленного материала и не желаете, чтобы ссылка на него находилась в нашем каталоге, свяжитесь с нами, и мы незамедлительно удалим ее. Файлы для обмена на трекере предоставлены пользователями сайта, и администрация не несет ответственности за их содержание. Просьба не заливать файлы, защищенные авторскими правами, а также файлы нелегального содержания!