[ Today is free to download without increasing Download ]

DL-List and Torrent activity
-Клиника / The Facility (2012) DVDRip- Русское название: Клиника
Оригинальное название: The Facility
Год выпуска: 2012
Производство: Великобритания
Жанр: Ужасы, Фантастика-Описание фильма:
Восемь добровольцев вынуждены бороться за свою жизнь, когда испытание нового медицинского препарата вызывает непредвиденную реакцию.-Режиссер: Йен Кларк
Актеры: Алекс Рид, Анайрин Барнард, Крис Ларкин, Стив Эветс, Джек Дулан, Оливер Коулмэн, Амит Шах, Ниа Робертс, Скай Лоури, Эмили Баттерфилд-Продолжительность: 01:19:25
Перевод: Двуголосый закадровый (DeadSno & den904)- -Дата мировой премьеры: 23 июня 2012-Видеокодек: Xvid
Битрейт видео: ~1058 kb/s
Размер кадра: 640x272
Качество видео: DVDRip
Аудиокодек: MP3 (2 ch)
Битрейт аудио: 160 kb/s


Полное имя : D:\Торрент раздача\The.Facility.2012.L2.DVDRip.700MB.avi
Формат : AVI
Формат/Информация : Audio Video Interleave
Размер файла : 697 Мбайт
Продолжительность : 1 ч. 19 м.
Общий поток : 1228 Кбит/сек
Программа кодирования : VirtualDubMod (build 2540/release)
Библиотека кодирования : VirtualDubMod build 2540/release
Идентификатор : 0
Формат : MPEG-4 Visual
Профиль формата : Advanced Simple@L5
Параметр BVOP формата : 2
Параметр QPel формата : Нет
Параметр GMC формата : Без точки перехода
Параметр матрицы формата : Default (H.263)
Идентификатор кодека : XVID
Идентификатор кодека/Подсказка : XviD
Продолжительность : 1 ч. 19 м.
Битрейт : 1058 Кбит/сек
Ширина : 640 пикселей
Высота : 272 пикселя
Соотношение сторон : 2,35:1
Частота кадров : 25,000 кадров/сек
Цветовое пространство : YUV
Субдискретизация насыщенности : 4:2:0
Битовая глубина : 8 бит
Тип развёртки : Прогрессивная
Метод сжатия : С потерями
Бит/(Пиксели*Кадры) : 0.243
Размер потока : 601 Мбайт (86%)
Библиотека кодирования : XviD 64
Идентификатор : 1
Формат : MPEG Audio
Версия формата : Version 1
Профиль формата : Layer 3
Идентификатор кодека : 55
Идентификатор кодека/Подсказка : MP3
Продолжительность : 1 ч. 19 м.
Вид битрейта : Постоянный
Битрейт : 160 Кбит/сек
Каналы : 2 канала
Частота : 44,1 КГц
Метод сжатия : С потерями
Размер потока : 90,9 Мбайт (13%)
Выравнивание : Разделение по промежуткам
Продолжительность промежутка : 40 мс. (1,00 видеокадр)
Время предзагрузки промежутка : 500 мс.
Время раздачи: 24/7


Display posts:    

Current time is: 26-Oct 07:04

All times are UTC + 3

You cannot post new topics in this forum
You cannot reply to topics in this forum
You cannot edit your posts in this forum
You cannot delete your posts in this forum
You cannot vote in polls in this forum
You cannot attach files in this forum
You cannot download files in this forum

The site does not give electronic versions of products, and is engaged only in a collecting and cataloguing of the references sent and published at a forum by our readers. If you are the legal owner of any submitted material and do not wish that the reference to it was in our catalogue, contact us and we shall immediately remove her. Files for an exchange on tracker are given by users of a site, and the administration does not bear the responsibility for their maintenance. The request to not fill in the files protected by copyrights, and also files of the illegal maintenance!