[ Сегодня идет свободное скачивание без начисления Download ]


Статистика раздачи
Нет
 
   
 
Top  
 
 
-Носферату: Призрак ночи / Nosferatu: Phantom der Nacht (1979) BDRip [H.264/1080p]- Русское название: Носферату: Призрак ночи
Оригинальное название: Nosferatu: Phantom der Nacht
Год выпуска: 1979
Произодство: Германия (ФРГ), Франция
Жанр: Драма, ужасы, авторское кино
Описание фильма:
Агента по недвижимости Джонатана Харкера отправляют в Трансильванию в замок графа Дракулы, который выразил желание приобрести себе особняк в Германии. По прибытию в замок графа, Харкер подписывает все необходимые бумаги, но при этом случайно роняет медальон с фотографией своей молодой жены Люси. И это, незначительное, казалось бы, обстоятельство, решает дальнейшую судьбу и Джонатана, и его любимой супруги...
Режиссер: Вернер Херцог
Актеры: Клаус Кински, Изабель Аджани, Бруно Ганц, Роланд Топор, Вальтер Ладенгаст, Дэн Ван Хузен, Ян Грот, Карстен Бодинус, Мартье Громанн, Рейк де Гойер, Клеменс Шайц, Ло ван Хенсберген, Джон Ледди, Тим Бекман, Жак Дюфило, Роджер Берри Лош, Беверли Уокер, Майкл Эдолс
Продолжительность: 01:47:06
Перевод: Многоголосый закадровый (Петербург 5 канал)
Язык субтитров: Русские (UTF-8)
Вид субтитров: Вшитые

Дата мировой премьеры: 17 января 1979
Рейтинг MPAA: Рекомендуется присутствие родителей

Награды:

Берлинский кинофестиваль, 1979 год
Победитель: Серебряный Медведь за выдающиеся персональные достижения (Хеннинг фон Гирке)
Номинации: Золотой Медведь
Сатурн, 1980 год
Номинации: Лучшие костюмы, Лучший иностранный фильм
Видеокодек: MPEG-4 AVC/H.264
Битрейт видео: ~10300 kbps
Размер кадра: 1920x1036 (1.853:1)
Качество видео: BDRip 1080p
Аудиокодек и битрейт:
1. Русский - AC3 2.0, 192 kbps
2. Немецкий - AC3 2.0, 192 kbps
Сэмпл: Ссылка, 24Mb

MediaInfo

Общее
Уникальный идентификатор                 : 250145775346950483396639072890489403233 (0xBC3052EC70428CB9B68FDE392BC3F761)
Полное имя                               : Nosferatu_Prizrak_nochi_1080p.mkv
Формат                                   : Matroska
Версия формата                           : Version 2
Размер файла                             : 7,92 Гбайт
Продолжительность                        : 1 ч. 47 м.
Общий поток                              : 10,6 Мбит/сек
Дата кодирования                         : UTC 2013-04-16 08:11:46
Программа кодирования                    : mkvmerge v6.1.0 ('Old Devil') built on Mar  2 2013 14:32:37
Библиотека кодирования                   : libebml v1.3.0 + libmatroska v1.4.0
Видео
Идентификатор                            : 1
Формат                                   : AVC
Формат/Информация                        : Advanced Video Codec
Профиль формата                          : [url=mailto:[email protected]][email protected][/url]
Параметр CABAC формата                   : Да
Параметр ReFrames формата                : 4 кадра
Идентификатор кодека                     : V_MPEG4/ISO/AVC
Продолжительность                        : 1 ч. 47 м.
Битрейт                                  : 10,3 Мбит/сек
Ширина                                   : 1920 пикселей
Высота                                   : 1036 пикселей
Соотношение сторон                       : 1,85:1
Режим частоты кадров                     : Постоянный
Частота кадров                           : 23,976 кадра/сек
Цветовое пространство                    : YUV
Субдискретизация насыщенности            : 4:2:0
Битовая глубина                          : 8 бит
Тип развёртки                            : Прогрессивная
Бит/(Пиксели*Кадры)                      : 0.215
Размер потока                            : 7,47 Гбайт (94%)
Библиотека кодирования                   : x264 core 130 r2273 b3065e6
Настройки программы                      : cabac=1 / ref=4 / deblock=1:-1:-1 / analyse=0x3:0x133 / me=umh / subme=10 / psy=1 / psy_rd=1.00:0.00 / mixed_ref=1 / me_range=48 / chroma_me=1 / trellis=2 / 8x8dct=1 / cqm=0 / deadzone=21,11 / fast_pskip=0 / chroma_qp_offset=-2 / threads=6 / lookahead_threads=1 / sliced_threads=0 / nr=0 / decimate=1 / interlaced=0 / bluray_compat=0 / constrained_intra=0 / bframes=10 / b_pyramid=2 / b_adapt=2 / b_bias=0 / direct=3 / weightb=1 / open_gop=0 / weightp=2 / keyint=240 / keyint_min=24 / scenecut=40 / intra_refresh=0 / rc_lookahead=50 / rc=2pass / mbtree=0 / bitrate=10266 / ratetol=2.0 / qcomp=1.00 / qpmin=0 / qpmax=51 / qpstep=4 / cplxblur=20.0 / qblur=0.5 / vbv_maxrate=38000 / vbv_bufsize=30000 / nal_hrd=none / ip_ratio=1.40 / pb_ratio=1.30 / aq=1:1.00
Язык                                     : English
Default                                  : Да
Forced                                   : Нет
Основные цвета                           : BT.709
Характеристики трансфера                 : BT.709
Коэффициенты матрицы                     : BT.709
Аудио #1
Идентификатор                            : 2
Формат                                   : AC-3
Формат/Информация                        : Audio Coding 3
Профиль формата                          : Dolby Digital
Расширение режима                        : CM (complete main)
Параметр Endianness формата              : Big
Идентификатор кодека                     : A_AC3
Продолжительность                        : 1 ч. 47 м.
Вид битрейта                             : Постоянный
Битрейт                                  : 192 Кбит/сек
Каналы                                   : 2 канала
Расположение каналов                     : Front: L R
Частота                                  : 48,0 КГц
Битовая глубина                          : 16 бит
Метод сжатия                             : С потерями
Размер потока                            : 147 Мбайт (2%)
Заголовок                                : MVO (Петербург 5 канал)
Язык                                     : Russian
Default                                  : Да
Forced                                   : Нет
Аудио #2
Идентификатор                            : 3
Формат                                   : AC-3
Формат/Информация                        : Audio Coding 3
Расширение режима                        : CM (complete main)
Параметр Endianness формата              : Big
Идентификатор кодека                     : A_AC3
Продолжительность                        : 1 ч. 47 м.
Вид битрейта                             : Постоянный
Битрейт                                  : 192 Кбит/сек
Каналы                                   : 2 канала
Расположение каналов                     : Front: L R
Частота                                  : 48,0 КГц
Битовая глубина                          : 16 бит
Метод сжатия                             : С потерями
Размер потока                            : 147 Мбайт (2%)
Язык                                     : German
Default                                  : Нет
Forced                                   : Нет
Текст
Идентификатор                            : 4
Формат                                   : UTF-8
Идентификатор кодека                     : S_TEXT/UTF8
Идентификатор кодека/Информация          : UTF-8 Plain Text
Язык                                     : Russian
Default                                  : Да
Forced                                   : Нет
Меню
00:00:00.000                             : en:00:00:00.000
00:05:57.023                             : en:00:05:57.023
00:09:34.615                             : en:00:09:34.615
00:12:23.743                             : en:00:12:23.743
00:14:11.016                             : en:00:14:11.016
00:19:20.450                             : en:00:19:20.450
00:27:16.968                             : en:00:27:16.968
00:33:38.099                             : en:00:33:38.099
00:40:44.275                             : en:00:40:44.275
00:46:33.373                             : en:00:46:33.373
00:52:23.765                             : en:00:52:23.765
00:53:53.980                             : en:00:53:53.980
00:57:39.706                             : en:00:57:39.706
01:04:07.051                             : en:01:04:07.051
01:06:07.922                             : en:01:06:07.922
01:10:14.877                             : en:01:10:14.877
01:18:18.235                             : en:01:18:18.235
01:26:54.751                             : en:01:26:54.751
01:46:52.405                             : en:01:46:52.405
Скриншоты:
Время раздачи: C 8:00 до 23:00 мск. До первых пяти скачавших.

[Цитировать]



Показать сообщения:    

Текущее время: 05-Дек 11:31

Часовой пояс: UTC + 3


Вы не можете начинать темы
Вы не можете отвечать на сообщения
Вы не можете редактировать свои сообщения
Вы не можете удалять свои сообщения
Вы не можете голосовать в опросах
Вы не можете прикреплять файлы к сообщениям
Вы не можете скачивать файлы

!ВНИМАНИЕ!
Сайт не предоставляет электронные версии произведений, а занимается лишь коллекционированием и каталогизацией ссылок, присылаемых и публикуемых на форуме нашими читателями. Если вы являетесь правообладателем какого-либо представленного материала и не желаете, чтобы ссылка на него находилась в нашем каталоге, свяжитесь с нами, и мы незамедлительно удалим ее. Файлы для обмена на трекере предоставлены пользователями сайта, и администрация не несет ответственности за их содержание. Просьба не заливать файлы, защищенные авторскими правами, а также файлы нелегального содержания!