[ Сегодня идет свободное скачивание без начисления Download ]


Статистика раздачи
Нет
 
   
 
Top  
 
 
- Лекарство против страха [16 серий из 16] (2013) SATRip- Русское название: Лекарство против страха
Выпущено: Россия, «ТЕЛЕОБЛИК»
Год выпуска: 2013
Жанр: Детектив, Мелодрама
Перевод: Оригинал (Русский)
Субтитры: Отсутствуют
Дата российской премьеры: 20 мая 2013
Режиссер: Александр Аравин
Актеры: Александр Лазарев (мл.), Дмитрий Ульянов, Янина Соколовская, Евгений Шумейко, Роман Агеев, Игорь Гордин, Александр Блок, Владимир Студеновский, Эльвира Болгова, Евгений Славский, Валерий Дегтярь, Полина Воробьева, Тимофей Каратаев, Александра Мареева, Николай Куглянт, Георгий Громов, Елена Муравьёва, Олег Абалян, Виктор Костецкий, Лев Елисеев, Константин Воробьёв, Татьяна Пилецкая, Витас Эйзенах, Юрий Ермаков, Валерий Никитенко, Елена Вожакина, Алёна Азарова, Анна Арефьева, Сергей Алимпиев, Александр Безруков, Денис Синявский, Вероника Вернадская, Василий Щипицын, Анна Бегунова, Геннадий Свирь, Галина Бокашевская, Денис Старков, Кирилл Нагиев, Ольга Каратеева, Арсений Семенов, Татьяна Рассказова, Юлия Бурова, Елена Ласкавая, Дмитрий Сутырин, Алексей Одинг, Александр Рязанцев, Сергей Малюгов, Алина Кикеля
Описание фильма:
Выпускник Военно-Медицинской Академии им. С.М. Кирова - подполковник медицинской службы Андрей Ковалев (Александр Лазарев-мл.) - человек неординарный и талантливый. Герой России и легендарный хирург, он много лет провел в горячих точках в составе миротворческих сил страны, спас сотни людей и не представляет себя без любимой профессии. Но когда из-за случайного ранения Ковалев вынужден оставить главное дело своей жизни, он решается на отчаянный шаг...
Продолжительность: 16 х ~ 00:44:00 серия
Качество видео: SATRip
Видеокодек: DivX 5
Битрейт видео: ~1600 Kbit/s
Размер кадра: 704 х 400
Аудиокодек: MP3, 2.0
Битрейт аудио: 128 Kbit/s

MediaInfo

Общее
Полное имя : D:\Торренты\ФИЛЬМЫ торента\Лекарство против страха.2013. SATRip\Лекарство против страха.01.avi
Формат : AVI
Формат/Информация : Audio Video Interleave
Размер файла : 487 Мбайт
Продолжительность : 39 м.
Общий поток : 1738 Кбит/сек
Библиотека кодирования : VirtualDub-MPEG2 build 24600/release
Видео
Идентификатор : 0
Формат : MPEG-4 Visual
Параметр BVOP формата : Да
Параметр QPel формата : Нет
Параметр GMC формата : Без точки перехода
Параметр матрицы формата : Default (H.263)
Идентификатор кодека : DX50
Идентификатор кодека/Подсказка : DivX 5
Продолжительность : 39 м.
Битрейт : 1600 Кбит/сек
Ширина : 704 пикс.
Высота : 400 пикс.
Соотношение сторон : 16:9
Частота кадров : 25,000 кадр/сек
Цветовое пространство : YUV
Подвыборка цветности : 4:2:0
Битовая глубина : 8 бит
Тип развёртки : Прогрессивная
Метод сжатия : С потерями
Бит/(Пиксели*Кадры) : 0.227
Размер потока : 448 Мбайт (92%)
Библиотека кодирования : Intel(R) MPEG-4 encoder based on Intel(R) IPP 6.1 build 137.20[6.1.137.763]
Аудио
Идентификатор : 1
Формат : MPEG Audio
Версия формата : Version 1
Профиль формата : Layer 3
Режим : Joint stereo
Расширение режима : MS Stereo
Идентификатор кодека : 55
Идентификатор кодека/Подсказка : MP3
Продолжительность : 39 м.
Вид битрейта : Постоянный
Битрейт : 128 Кбит/сек
Каналы : 2 канала
Частота : 48,0 КГц
Метод сжатия : С потерями
Размер потока : 35,8 Мбайт (7%)
Выравнивание : Разделение по промежуткам
Продолжительность промежутка : 40 мс. (1,00 видеокадр)
Время предзагрузки промежутка : 500 ms
Библиотека кодирования : LAME3.98.2
Скриншоты:
Время раздачи: 24/7 по возможности

[Цитировать]



Показать сообщения:    

Текущее время: 04-Дек 07:02

Часовой пояс: UTC + 3


Вы не можете начинать темы
Вы не можете отвечать на сообщения
Вы не можете редактировать свои сообщения
Вы не можете удалять свои сообщения
Вы не можете голосовать в опросах
Вы не можете прикреплять файлы к сообщениям
Вы не можете скачивать файлы

!ВНИМАНИЕ!
Сайт не предоставляет электронные версии произведений, а занимается лишь коллекционированием и каталогизацией ссылок, присылаемых и публикуемых на форуме нашими читателями. Если вы являетесь правообладателем какого-либо представленного материала и не желаете, чтобы ссылка на него находилась в нашем каталоге, свяжитесь с нами, и мы незамедлительно удалим ее. Файлы для обмена на трекере предоставлены пользователями сайта, и администрация не несет ответственности за их содержание. Просьба не заливать файлы, защищенные авторскими правами, а также файлы нелегального содержания!