[ Сегодня идет свободное скачивание без начисления Download ]


Статистика раздачи
Нет
 
   
 
Top  
 
 
-Мул / The Mule (2013) BDRemux [1080p]-«Никому не доверяй»- Русское название: Мул
Оригинальное название: The Mule
Год выпуска: 2013
Производство: США, Sakonnet Capital Partners, Voltage Pictures
Жанр: Триллер
Перевод: Профессиональный, многоголосый закадровый (R5)
Субтитры: (*srt): Русский, Английский
Режиссер: Габриела Тальявини
Продюсер: Лукас Джарач, Джейсон Прайс, Чак Биндер
Актеры: Шэрон Стоун, Билли Зейн, Роземберг Сальгадо, Мигель Родарт, Джованна Закариас, Ольга Сегура, Маноло Кардона, Гилмер Беджарано, Себестино Салазар, Промис ЛаМарко
Описание фильма:
Американская женщина-репортер в поисках своего пропавшего брата, на фоне насилия и человеческой контрабанды на границе США с Мексикой.-
Дата мировой премьеры: 26 февраля 2013
Дата выхода DVD релиза: 20 марта 2013, «Кармен Видео», «ВС трейд»-Релиз от: (за исходник спасибо BLUEBIRD)
Продолжительность: 01:36:10
Качество видео: BDRemux
Видео: 1920x1080p / 23,976 fps / 16:9 / High Profile 4.1, H.264, ~ 24978 kbps
Аудио:
1. DTS-HD Master Audio / Русский / 5.1 / 48 kHz / 1750 kbps / 16-bit (DTS Core: 5.1 / 48 kHz / 1509 kbps / 16-bit) (MVO)
2. AC3 / Русский / 384 kb/s / 6 ch / Многоголосый закадровый (R5)
3. DTS-HD Master Audio / English / 5.1 / 48 kHz / 1804 kbps / 16-bit (DTS Core: 5.1 / 48 kHz / 1509 kbps / 16-bit / DN -4dB)
-

MediaInfo 0.7.61

Общее
Уникальный идентификатор : 221188028850872099263539963777412095934 (0xA66743CA9D15241F9C1D41B59FD5DFBE)
Полное имя : R:\003\Мул - The Mule.2013.BDRemux.NNM-CLUB.mkv
Формат : Matroska
Версия формата : Version 2
Размер файла : 19,1 Гбайт
Продолжительность : 1 ч. 36 м.
Режим общего битрейта : Переменный
Общий поток : 28,4 Мбит/сек
Название фильма : Мул - The Mule.2013.BDRemux.NNM-CLUB
Дата кодирования : UTC 2013-03-20 11:00:12
Программа кодирования : mkvmerge v5.8.0 ('No Sleep / Pillow') built on Sep 2 2012 15:37:04
Библиотека кодирования : libebml v1.2.3 + libmatroska v1.3.0
Видео
Идентификатор : 1
Формат : AVC
Формат/Информация : Advanced Video Codec
Профиль формата : [email protected]
Параметр CABAC формата : Да
Параметр ReFrames формата : 4 кадра
Параметр GOP формата : M=3, N=24
Режим смешивания : Container [email protected]
Идентификатор кодека : V_MPEG4/ISO/AVC
Продолжительность : 1 ч. 36 м.
Вид битрейта : Переменный
Битрейт : 24,4 Мбит/сек
Максимальный битрейт : 35,0 Мбит/сек
Ширина : 1920 пикселей
Высота : 1080 пикселей
Соотношение сторон : 16:9
Режим частоты кадров : Постоянный
Частота кадров : 23,976 кадра/сек
Стандарт вещания : NTSC
Цветовое пространство : YUV
Субдискретизация насыщенности : 4:2:0
Битовая глубина : 8 бит
Тип развёртки : Прогрессивная
Бит/(Пиксели*Кадры) : 0.491
Размер потока : 16,4 Гбайт (86%)
Заголовок : Мул - The Mule.2013.BDRemux.NNM-CLUB
Язык : English
Default : Нет
Forced : Нет
Основные цвета : BT.709
Характеристики трансфера : BT.709
Коэффициенты матрицы : BT.709
Аудио #1
Идентификатор : 2
Формат : DTS
Формат/Информация : Digital Theater Systems
Режим : 16
Параметр Endianness формата : Big
Идентификатор кодека : A_DTS
Продолжительность : 1 ч. 36 м.
Вид битрейта : Постоянный
Битрейт : 1509 Кбит/сек
Каналы : 6 каналов
Расположение каналов : Front: L C R, Side: L R, LFE
Частота : 48,0 КГц
Битовая глубина : 24 бит
Метод сжатия : С потерями
Размер потока : 1,01 Гбайт (5%)
Заголовок : Многоголосый закадровый (R5) DTS-HD
Язык : Russian
Default : Да
Forced : Нет
Аудио #2
Идентификатор : 3
Формат : AC-3
Формат/Информация : Audio Coding 3
Расширение режима : CM (complete main)
Параметр Endianness формата : Big
Идентификатор кодека : A_AC3
Продолжительность : 1 ч. 36 м.
Вид битрейта : Постоянный
Битрейт : 384 Кбит/сек
Каналы : 6 каналов
Расположение каналов : Front: L C R, Side: L R, LFE
Частота : 48,0 КГц
Битовая глубина : 16 бит
Метод сжатия : С потерями
Размер потока : 264 Мбайт (1%)
Заголовок : Многоголосый закадровый (R5) DTS
Язык : Russian
Default : Нет
Forced : Нет
Аудио #3
Идентификатор : 4
Формат : DTS
Формат/Информация : Digital Theater Systems
Режим : 16
Параметр Endianness формата : Big
Идентификатор кодека : A_DTS
Продолжительность : 1 ч. 36 м.
Вид битрейта : Постоянный
Битрейт : 1509 Кбит/сек
Каналы : 6 каналов
Расположение каналов : Front: L C R, Side: L R, LFE
Частота : 48,0 КГц
Битовая глубина : 24 бит
Метод сжатия : С потерями
Размер потока : 1,01 Гбайт (5%)
Заголовок : Оригинал
Язык : English
Default : Нет
Forced : Нет
Текст #1
Идентификатор : 5
Формат : UTF-8
Идентификатор кодека : S_TEXT/UTF8
Идентификатор кодека/Информация : UTF-8 Plain Text
Язык : Russian
Default : Нет
Forced : Нет
Текст #2
Идентификатор : 6
Формат : UTF-8
Идентификатор кодека : S_TEXT/UTF8
Идентификатор кодека/Информация : UTF-8 Plain Text
Язык : English
Default : Нет
Forced : Нет
Меню
00:00:00.000 : :Chapter 01
00:13:38.818 : :Chapter 02
00:26:52.736 : :Chapter 03
00:39:41.462 : :Chapter 04
00:52:48.915 : :Chapter 05
01:05:34.889 : :Chapter 06
01:18:24.741 : :Chapter 07
01:31:55.051 : :Chapter 08
АДмин писал(а):
Русский DTS-HD МА получен микшированием выделенных голосов переводчиков с каналом оригинальной ХД дорожки.Скриншоты:




Время раздачи: круглогодичноИграю на аккордеоне за "Спасибо"

[Цитировать]

Топик был перенесен из форума Новинки кинопроката (HD Video) в форум Зарубежное кино (HD Video)
Bootch



Показать сообщения:    

Текущее время: 04-Дек 02:56

Часовой пояс: UTC + 3


Вы не можете начинать темы
Вы не можете отвечать на сообщения
Вы не можете редактировать свои сообщения
Вы не можете удалять свои сообщения
Вы не можете голосовать в опросах
Вы не можете прикреплять файлы к сообщениям
Вы не можете скачивать файлы

!ВНИМАНИЕ!
Сайт не предоставляет электронные версии произведений, а занимается лишь коллекционированием и каталогизацией ссылок, присылаемых и публикуемых на форуме нашими читателями. Если вы являетесь правообладателем какого-либо представленного материала и не желаете, чтобы ссылка на него находилась в нашем каталоге, свяжитесь с нами, и мы незамедлительно удалим ее. Файлы для обмена на трекере предоставлены пользователями сайта, и администрация не несет ответственности за их содержание. Просьба не заливать файлы, защищенные авторскими правами, а также файлы нелегального содержания!