[ Сегодня идет свободное скачивание без начисления Download ]


Статистика раздачи
Нет
 
   
 
Top  
 
 
-Евротур (Расширенная дополненная версия) / EuroTrip (Extended Unrated Cut) (2004) DVDRip- Русское название: Евротур (Расширенная дополненная версия)
Оригинальное название: EuroTrip (Extended Unrated Cut)
Год выпуска: 2004
Жанр: Комедия, Приключения
Описание фильма:
Скотт Томас завел себе друга по переписке из Германии из самых практичных соображений. Он хотел получить отличную оценку по немецкому, а некто с именем Мик согласился перевести его домашние работы. Но вскоре выяснилось, что Мик — обворожительная блондинка, которая не прочь увидеть своего американского друга вживую.
После выпускных экзаменов Скотт прихватывает нескольких близких друзей и летит в Европу. Впереди его ждет увлекательное, хоть и беспокойное путешествие из Лондона в Берлин через Париж и Амстердам.
Режиссер: Джефф Шеффер, Алек Берг, Дэвид Мэндел
Актеры: Скотт Мехловиц, Джекоб Питтс, Кристин Кройк, Мишель Трахтенберг, Трэвис Уэстер, Мэтт Дэймон, Молли Шод, Джакки Дегг, Джессика Бёрс, Винни Джонс
Продолжительность: 01:48:26
Перевод: Многоголосый закадровый, со вставками двухголосого на расширенные места

Дата мировой премьеры: 20.02.2004
Дата российской премьеры: 26.08.2004
Дата выхода DVD релиза: 16.09.2004
Видеокодек: Xvid
Битрейт видео: ~2913 kbps avg
Размер кадра: 720x384
Качество видео: DVDRip
Аудио #1: 44.100 kHz, MPEG Layer 3, 2 ch, 128.00 kbps avg
Профессиональный (многоголосый закадровый со вставками любительского двухголосого на расширенные места)
Аудио #2: 44.1 kHz, AC3 Dolby Digital, 2/0 (L,R) ch, 256 kbps
Профессиональный (многоголосый закадровый без перевода на расширенные места) Расширенная версия была получена путем врезания удаленных и расширенных сцен на свои места.

14 добавленных сцен.

1) Сцена на таможне, где Скотт и Купер проходят с "багажом".
2) Сцена игры в шахматы с футбольными болельщиками.
3) Сцена распевания песни в автобусе с футбольными болельщиками.
4) Сцена в ресторане (где они сбегают, не заплатив).
5) Сцена в электричке, где Дженни "соблазняет" Купера (сразу после пляжа).
6) Сцена ночью в электричке, где Купер пытается сфотографировать то, что у него в трусах.
7) Сцена в отеле Амстердама, где женщина рассказывает все правила.
8) Сцена на дороге, где Дженни демонстрирует свою грудь проезжащим фурам.
9) Реклама сока двумя лесбиянками (в представлениях Купера).
10) Сцена в Американском посольстве Рима (встреча со "старым знакомым" из электрички).
11) Сцена, показывающая, что осталось от сгоревшего колпака (в музее).
12) Расширенная сцена секса в церкви.
13) Сцена разговора Мишель и Скотта (альтернативной той, что в театральной версии).
14) Сцена избиения "робота" Купером.
Добавленные сцены отличаются по качеству видео от самого фильма.
Бонусом после всех титров добавлен караоке-клип на песню "Scotty Doesn't Know".

MediaInfo

Общее
Полное имя : H:\торренты на раздаче\Евротур [расширенная дополненная версия].avi
Формат : AVI
Формат/Информация : Audio Video Interleave
Профиль формата : OpenDML
Размер файла : 2,51 Гбайт
Продолжительность : 1 ч. 48 м.
Общий поток : 3317 Кбит/сек
Программа кодирования : VirtualDubMod 1.5.10.2 (build 2540/release)
Библиотека кодирования : VirtualDubMod build 2540/release
Видео
Идентификатор : 0
Формат : MPEG-4 Visual
Профиль формата : Advanced [email protected]
Параметр BVOP формата : 1
Параметр QPel формата : Нет
Параметр GMC формата : Без точки перехода
Параметр матрицы формата : Default (H.263)
Режим смешивания : Сжатый битовый поток
Идентификатор кодека : XVID
Идентификатор кодека/Подсказка : XviD
Продолжительность : 1 ч. 48 м.
Битрейт : 2913 Кбит/сек
Ширина : 720 пикселей
Высота : 384 пикселя
Соотношение сторон : 1,85:1
Частота кадров : 29,970 кадров/сек
Цветовое пространство : YUV
Субдискретизация насыщенности : 4:2:0
Битовая глубина : 8 бит
Тип развёртки : Прогрессивная
Метод сжатия : С потерями
Бит/(Пиксели*Кадры) : 0.352
Размер потока : 2,21 Гбайт (88%)
Библиотека кодирования : XviD 1.2.1 (UTC 2008-12-04)
Аудио #1
Идентификатор : 1
Формат : MPEG Audio
Версия формата : Version 1
Профиль формата : Layer 3
Режим : Joint stereo
Расширение режима : MS Stereo
Идентификатор кодека : 55
Идентификатор кодека/Подсказка : MP3
Продолжительность : 1 ч. 48 м.
Вид битрейта : Постоянный
Битрейт : 128 Кбит/сек
Каналы : 2 канала
Частота : 44,1 КГц
Метод сжатия : С потерями
Размер потока : 99,3 Мбайт (4%)
Выравнивание : Разделение по промежуткам
Продолжительность промежутка : 33 мс. (1,00 видеокадр)
Время предзагрузки промежутка : 500 мс.
Аудио #2
Идентификатор : 2
Формат : AC-3
Формат/Информация : Audio Coding 3
Расширение режима : CM (complete main)
Параметр Endianness формата : Big
Идентификатор кодека : 2000
Продолжительность : 1 ч. 48 м.
Вид битрейта : Постоянный
Битрейт : 256 Кбит/сек
Каналы : 2 канала
Расположение каналов : Front: L R
Частота : 44,1 КГц
Битовая глубина : 16 бит
Метод сжатия : С потерями
Размер потока : 198 Мбайт (8%)
Выравнивание : Соединение по промежуткам
Продолжительность промежутка : 35 мс. (1,04 видеокадр)
Время предзагрузки промежутка : 522 мс.
Скриншоты:
Время раздачи: по возможности 24/7

[Цитировать]



Показать сообщения:    

Текущее время: 04-Дек 13:20

Часовой пояс: UTC + 3


Вы не можете начинать темы
Вы не можете отвечать на сообщения
Вы не можете редактировать свои сообщения
Вы не можете удалять свои сообщения
Вы не можете голосовать в опросах
Вы не можете прикреплять файлы к сообщениям
Вы не можете скачивать файлы

!ВНИМАНИЕ!
Сайт не предоставляет электронные версии произведений, а занимается лишь коллекционированием и каталогизацией ссылок, присылаемых и публикуемых на форуме нашими читателями. Если вы являетесь правообладателем какого-либо представленного материала и не желаете, чтобы ссылка на него находилась в нашем каталоге, свяжитесь с нами, и мы незамедлительно удалим ее. Файлы для обмена на трекере предоставлены пользователями сайта, и администрация не несет ответственности за их содержание. Просьба не заливать файлы, защищенные авторскими правами, а также файлы нелегального содержания!