[ Сегодня идет свободное скачивание без начисления Download ]


Статистика раздачи
Нет
 
   
 
Top  
 
 
-Легенда №17 (2013) BDRip [1080p] - Русское название: Легенда №17
Год выпуска: 2013
Производство: Россия
Жанр: Спорт, Драма, Биография
Перевод: Не требуется (Русский)
Субтитры: Отсутствуют-Дата мировой премьеры: 18 апреля 2013
Дата российской премьеры: 18 апреля 2013, «Централ Партнершип»
Дата выхода DVD релиза: 30 мая 2013, «CP Дистрибуция»
Дата выхода Blu-Ray релиза: 30 мая 2013, «CP Дистрибуция»-Режиссер: Николай Лебедев
Продюсер: Леонид Верещагин, Антон Златопольский, Никита Михалков
Актеры: Данила Козловский, Олег Меньшиков, Владимир Меньшов, Борис Щербаков, Роман Мадянов, Светлана Иванова, Дарья Екамасова, Гёц Отто, Алехандра Грепи, Александр Рагулин-Описание фильма:
2 сентября 1972 года. Монреаль. Хоккейная сборная СССР с разгромным счетом 7:3 победила канадских профессионалов из НХЛ в стартовом матче эпохальной Суперсерии СССР-Канада. Это была не просто игра, это была битва за свою страну, которая перевернула мировое представление о хоккее. Теперь весь мир знал его просто по номеру «17». Валерий Харламов, забивший в том матче 2 шайбы, мгновенно взлетел на вершину славы. Сбылась его мечта -упорство, спортивный талант и суровые уроки великого тренера Анатолия Тарасова сделали из «номера 17» легенду мирового хоккея.- -Продолжительность: 02:13:53
Качество видео: BDRip 1080p-Видеокодек: MPEG-4 AVC/H.264
Битрейт видео: ~11,5 Мбит/сек
Размер кадра: 1920x804
Аудиокодек: DTS 5.1
Битрейт аудио: 1510 Кбит/сек

MediaInfo

Формат : Matroska
Версия формата : Version 2
Размер файла : 12,4 Гбайт
Продолжительность : 2 ч. 13 м.
Общий поток : 13,3 Мбит/сек
Дата кодирования : UTC 2013-05-24 16:42:50
Программа кодирования : mkvmerge v5.2.0 ('I can't explain') built on Dec 18 2011 18:12:03
Библиотека кодирования : libebml v1.2.3 + libmatroska v1.3.0
Видео
Идентификатор : 1
Формат : AVC
Формат/Информация : Advanced Video Codec
Профиль формата : High@L4.1
Параметр CABAC формата : Да
Параметр ReFrames формата : 5 кадров
Идентификатор кодека : V_MPEG4/ISO/AVC
Продолжительность : 2 ч. 13 м.
Битрейт : 11,5 Мбит/сек
Ширина : 1920 пикселей
Высота : 804 пикселя
Соотношение сторон : 2,40:1
Частота кадров : 24,000 кадра/сек
Цветовое пространство : YUV
Субдискретизация насыщенности : 4:2:0
Битовая глубина : 8 бит
Тип развёртки : Прогрессивная
Бит/(Пиксели*Кадры) : 0.310
Размер потока : 10,7 Гбайт (87%)
Библиотека кодирования : x264 core 130 r2273 b3065e6
Настройки программы : cabac=1 / ref=5 / deblock=1:-1:-1 / analyse=0x3:0x113 / me=dia / subme=1 / psy=1 / psy_rd=1.00:0.15 / mixed_ref=1 / me_range=16 / chroma_me=1 / trellis=1 / 8x8dct=1 / cqm=0 / deadzone=21,11 / fast_pskip=1 / chroma_qp_offset=-1 / threads=12 / lookahead_threads=2 / sliced_threads=0 / nr=0 / decimate=1 / interlaced=0 / bluray_compat=0 / constrained_intra=0 / bframes=3 / b_pyramid=2 / b_adapt=1 / b_bias=0 / direct=1 / weightb=1 / open_gop=0 / weightp=2 / keyint=250 / keyint_min=23 / scenecut=40 / intra_refresh=0 / rc_lookahead=40 / rc=crf / mbtree=1 / crf=19.2 / qcomp=0.60 / qpmin=0 / qpmax=69 / qpstep=4 / ip_ratio=1.40 / aq=1:1.00
Язык : Russian
Default : Да
Forced : Нет
Аудио
Идентификатор : 2
Формат : DTS
Формат/Информация : Digital Theater Systems
Идентификатор кодека : A_DTS
Продолжительность : 2 ч. 13 м.
Вид битрейта : Постоянный
Битрейт : 1510 Кбит/сек
Каналы : 6 каналов
Расположение каналов : Front: L C R, Side: L R, LFE
Частота : 48,0 КГц
Битовая глубина : 16 бит
Метод сжатия : С потерями
Размер потока : 1,41 Гбайт (11%)
Язык : Russian
Default : Да
Forced : Нет
Скриншоты: Время раздачи: 24/7. До первых 5 скачавших.

[Цитировать]

Топик был перенесен из форума Новинки кинопроката (HD Video) в форум Российское / казахстанское кино
Bootch



Показать сообщения:    

Текущее время: 11-Дек 05:09

Часовой пояс: UTC + 3


Вы не можете начинать темы
Вы не можете отвечать на сообщения
Вы не можете редактировать свои сообщения
Вы не можете удалять свои сообщения
Вы не можете голосовать в опросах
Вы не можете прикреплять файлы к сообщениям
Вы не можете скачивать файлы

!ВНИМАНИЕ!
Сайт не предоставляет электронные версии произведений, а занимается лишь коллекционированием и каталогизацией ссылок, присылаемых и публикуемых на форуме нашими читателями. Если вы являетесь правообладателем какого-либо представленного материала и не желаете, чтобы ссылка на него находилась в нашем каталоге, свяжитесь с нами, и мы незамедлительно удалим ее. Файлы для обмена на трекере предоставлены пользователями сайта, и администрация не несет ответственности за их содержание. Просьба не заливать файлы, защищенные авторскими правами, а также файлы нелегального содержания!