[ Сегодня идет свободное скачивание без начисления Download ]


Статистика раздачи
Нет
 
   
 
Top  
 
 
Золото Маккенны / Mackenna's Gold«A GIANT OF A MOVIE»
Год выпуска: 1969
Страна: США
Производство: Columbia Pictures Corporation, Highroad Productions, Open Road
Жанр: мелодрама, вестерн
Режиссер: Дж. Ли Томпсон
В ролях: Грегори Пек, Омар Шариф, Телли Савалас, Камилла Спарв, Кинен Уинн , Джули Ньюмар, Тед Кэссиди, Ли Дж. Кобб, Рэймонд Мэсси, Бёрджесс Мередит
Перевод: Профессиональный (полное дублирование)
Субтитры: Отсутствуют
Описание: Благодаря случайным обстоятельствам шериф Маккенна узнает о том, где спрятано золото древнего индейского племени. В качестве «живой карты» он становится заложником бандита Колорадо, который мечтает найти каньон «дьявольское наваждение»… К группе головорезов примыкают все новые и новые охотники за богатством, но далеко не всем суждено будет добраться до цели. Тем более вернуться живыми, ведь на пути к заветной цели их ждет неизвестность…

Качество: DVDRip
Продолжительность: 02:02:50
Формат: AVI
Видео кодек: XviD
Аудио кодек: MP3
Видео: 720x308 (2.34:1), 25 fps, DivX Codec 6.8.5/6.9.1 ~1898 kbps avg, 0.34 bit/pixel
Аудио: 48 kHz, MPEG Layer 3, 2 ch, ~160.00 kbps avg

Media Info

General
Complete name                    : D:\фильмы\Zoloto.Makkeny.avi
Format                           : AVI
Format/Info                      : Audio Video Interleave
File size                        : 1.92 GiB
Duration                         : 2h 2mn
Overall bit rate                 : 2 234 Kbps
Writing application              : VirtualDubMod 1.5.10.2 (build 2540/release)
Writing library                  : VirtualDubMod build 2540/release
Video
ID                               : 0
Format                           : MPEG-4 Visual
Format settings, BVOP            : Yes
Format settings, QPel            : No
Format settings, GMC             : No warppoints
Format settings, Matrix          : Default (H.263)
Codec ID                         : DX50
Codec ID/Hint                    : DivX 5
Duration                         : 2h 2mn
Bit rate                         : 1 899 Kbps
Width                            : 720 pixels
Height                           : 308 pixels
Display aspect ratio             : 2.35:1
Frame rate                       : 25.000 fps
Color space                      : YUV
Chroma subsampling               : 4:2:0
Bit depth                        : 8 bits
Scan type                        : Progressive
Compression mode                 : Lossy
Bits/(Pixel*Frame)               : 0.343
Stream size                      : 1.63 GiB (85%)
Writing library                  : DivX 6.8.5 (UTC 2009-08-20)
Audio #1
ID                               : 1
Format                           : MPEG Audio
Format version                   : Version 1
Format profile                   : Layer 3
Mode                             : Joint stereo
Codec ID                         : 55
Codec ID/Hint                    : MP3
Duration                         : 2h 2mn
Bit rate mode                    : Constant
Bit rate                         : 160 Kbps
Channel(s)                       : 2 channels
Sampling rate                    : 48.0 KHz
Compression mode                 : Lossy
Stream size                      : 141 MiB (7%)
Alignment                        : Split accross interleaves
Interleave, duration             : 40 ms (1.00 video frame)
Interleave, preload duration     : 500 ms
Audio #2
ID                               : 2
Format                           : MPEG Audio
Format version                   : Version 1
Format profile                   : Layer 3
Mode                             : Joint stereo
Codec ID                         : 55
Codec ID/Hint                    : MP3
Duration                         : 2h 2mn
Bit rate mode                    : Constant
Bit rate                         : 160 Kbps
Channel(s)                       : 2 channels
Sampling rate                    : 48.0 KHz
Compression mode                 : Lossy
Stream size                      : 141 MiB (7%)
Alignment                        : Split accross interleaves
Interleave, duration             : 40 ms (1.00 video frame)
Interleave, preload duration     : 500 ms

Скриншоты

[Цитировать]



Показать сообщения:    

Текущее время: 06-Дек 11:19

Часовой пояс: UTC + 3


Вы не можете начинать темы
Вы не можете отвечать на сообщения
Вы не можете редактировать свои сообщения
Вы не можете удалять свои сообщения
Вы не можете голосовать в опросах
Вы не можете прикреплять файлы к сообщениям
Вы не можете скачивать файлы

!ВНИМАНИЕ!
Сайт не предоставляет электронные версии произведений, а занимается лишь коллекционированием и каталогизацией ссылок, присылаемых и публикуемых на форуме нашими читателями. Если вы являетесь правообладателем какого-либо представленного материала и не желаете, чтобы ссылка на него находилась в нашем каталоге, свяжитесь с нами, и мы незамедлительно удалим ее. Файлы для обмена на трекере предоставлены пользователями сайта, и администрация не несет ответственности за их содержание. Просьба не заливать файлы, защищенные авторскими правами, а также файлы нелегального содержания!