[ Сегодня идет свободное скачивание без начисления Download ]


Статистика раздачи
Нет
 
   
 
Top  
 
 
-Тепло наших тел / Warm Bodies (2013) WEB-DLRip-«Он всё ещё мёртв, но сердце снова бьётся»
Русское название: Тепло наших тел
Оригинальное название: Warm Bodies
Год выпуска: 2013
Производство: США
Жанр: Ужасы, Мелодрама, Комедия
Перевод: Дублированный [Звук с TS]
Дата мировой премьеры: 16 января 2013
Дата российской премьеры: 31 января 2013
Режиссер: Джонатан Левин
Актеры: Николас Холт, Тереза Палмер, Аналей Типтон, Роб Кордри, Дэйв Франко, Джон Малкович, Кори Хардрикт, Дэниэл Риндресс-Кей, Винсент Леклерк, Клиффорд ЛеДюк-Вайанкур
Описание фильма:
Мир поражен чумой и стоит на грани вымирания. Покойники ходят по земле и норовят употребить в пищу живых, которые, оставшись в катастрофическом меньшинстве, с трудом держат оборону. Перемены начинаются, когда один зомби, чье имя при жизни начиналось на «Р», спасает девушку вместо того, чтобы ее съесть. Дружба, завязавшаяся между представителями враждующих сторон, грозит обоим самыми нехорошими последствиями. Но Р и Джули, сами того не подозревая, держат в руках простой и единственный ключ к спасению гибнущего мира.

Продолжительность: 01:37:45
Качество видео: WEB-DLRip
Видеокодек: Xvid
Битрейт видео: ~1800 kb/s
Размер кадра: 720x304
Аудиокодек: AC3 2.0
Битрейт аудио: 192 kb/s
Сэмпл: Скачать

MediaInfo

General
Complete name : E:\Фильмы\Warm_Bodies_2013_WEBDLRip.avi
Format : AVI
Format/Info : Audio Video Interleave
File size : 1.37 GiB
Duration : 1h 37mn
Overall bit rate : 2 001 Kbps
Writing application : VirtualDubMod 1.5.10.3 | www.virtualdub-fr.org || (build 2550/release)
Writing library : VirtualDubMod build 2550/release
Video
ID : 0
Format : MPEG-4 Visual
Format profile : Advanced Simple@L5
Format settings, BVOP : 1
Format settings, QPel : No
Format settings, GMC : No warppoints
Format settings, Matrix : Custom
Codec ID : XVID
Codec ID/Hint : XviD
Duration : 1h 37mn
Bit rate : 1 800 Kbps
Width : 720 pixels
Height : 304 pixels
Display aspect ratio : 2.35:1
Frame rate : 23.976 fps
Color space : YUV
Chroma subsampling : 4:2:0
Bit depth : 8 bits
Scan type : Progressive
Compression mode : Lossy
Bits/(Pixel*Frame) : 0.343
Stream size : 1.23 GiB (90%)
Writing library : XviD 1.2.1 (UTC 2008-12-04)
Audio
ID : 1
Format : AC-3
Format/Info : Audio Coding 3
Mode extension : CM (complete main)
Format settings, Endianness : Big
Codec ID : 2000
Duration : 1h 37mn
Bit rate mode : Constant
Bit rate : 192 Kbps
Channel(s) : 2 channels
Channel positions : Front: L R
Sampling rate : 48.0 KHz
Bit depth : 16 bits
Compression mode : Lossy
Stream size : 134 MiB (10%)
Alignment : Split accross interleaves
Interleave, duration : 42 ms (1.00 video frame)
Interleave, preload duration : 500 ms
Скриншоты: Время раздачи: до 5 сидов

[Цитировать]

Топик был перенесен из форума Новинки кинопроката в форум Ужасы
Henkok



Показать сообщения:    

Текущее время: 08-Дек 09:06

Часовой пояс: UTC + 3


Вы не можете начинать темы
Вы не можете отвечать на сообщения
Вы не можете редактировать свои сообщения
Вы не можете удалять свои сообщения
Вы не можете голосовать в опросах
Вы не можете прикреплять файлы к сообщениям
Вы не можете скачивать файлы

!ВНИМАНИЕ!
Сайт не предоставляет электронные версии произведений, а занимается лишь коллекционированием и каталогизацией ссылок, присылаемых и публикуемых на форуме нашими читателями. Если вы являетесь правообладателем какого-либо представленного материала и не желаете, чтобы ссылка на него находилась в нашем каталоге, свяжитесь с нами, и мы незамедлительно удалим ее. Файлы для обмена на трекере предоставлены пользователями сайта, и администрация не несет ответственности за их содержание. Просьба не заливать файлы, защищенные авторскими правами, а также файлы нелегального содержания!