[ Сегодня идет свободное скачивание без начисления Download ]


Статистика раздачи
Нет
 
   
 
Top  
 
 
-Тепло наших тел / Warm Bodies (2013) WEB-DL«Он всё ещё мёртв, но сердце снова бьётся»- Русское название: Тепло наших тел
Оригинальное название: Warm Bodies
Год выпуска: 2013
Производство: США
Жанр: Ужасы, Мелодрама, Комедия
Перевод: Дублированный [Звук с TS]
Субтитры: Отсутствуют
Дата мировой премьеры: 16 января 2013
Дата российской премьеры: 31 января 2013, «West»
Режиссер: Джонатан Левин
Продюсер: Дэвид Хоберман, Тодд Либерман, Бруна Папандреа
Актеры: Николас Холт, Тереза Палмер, Аналей Типтон, Роб Кордри, Дэйв Франко, Джон Малкович, Кори Хардрикт, Дэниэл Риндресс-Кей, Винсент Леклерк, Клиффорд ЛеДюк-Вайанкур
Описание фильма:
Мир поражен чумой и стоит на грани вымирания. Покойники ходят по земле и норовят употребить в пищу живых, которые, оставшись в катастрофическом меньшинстве, с трудом держат оборону. Перемены начинаются, когда один зомби, чье имя при жизни начиналось на «Р», спасает девушку вместо того, чтобы ее съесть. Дружба, завязавшаяся между представителями враждующих сторон, грозит обоим самыми нехорошими последствиями. Но Р и Джули, сами того не подозревая, держат в руках простой и единственный ключ к спасению гибнущего мира.

Продолжительность: 01:37:45
Качество видео: WEB-DL
Видеокодек: MPEG-4 AVC/H.264
Битрейт видео: ~4040 Kbit/s
Размер кадра: 1280 x 530
Аудио #1: AC3, 48,0 КHz, 2.0, 192 Kbit/s (Русский дублированный)
Aудио #2: AC3, 48,0 КHz, 5.1, 384 Kbit/s (Оригинальный английский)

MediaInfo

Общее
Уникальный идентификатор : 215687132928836035443332474007397499740 (0xA243D4AED408E5DABDE2C22301E6835C)
Полное имя : D:\Торренты\Тепло наших тел.2013.WEBDL.720p.mkv
Формат : Matroska
Размер файла : 3,22 Гбайт
Продолжительность : 1 ч. 37 м.
Общий поток : 4710 Кбит/сек
Дата кодирования : UTC 2013-05-15 10:04:56
Программа кодирования : mkvmerge v6.1.0 ('Old Devil')
Библиотека кодирования : libebml v1.3.0 + libmatroska v1.4.0
Видео
Идентификатор : 1
Формат : AVC
Формат/Информация : Advanced Video Codec
Профиль формата : Main@L3.1
Параметр CABAC формата : Нет
Параметр ReFrames формата : 2 кадра
Идентификатор кодека : V_MPEG4/ISO/AVC
Продолжительность : 1 ч. 37 м.
Битрейт : 4040 Кбит/сек
Ширина : 1280 пикс.
Высота : 530 пикс.
Соотношение сторон : 2,40:1
Частота кадров : 23,976 кадр/сек
Цветовое пространство : YUV
Подвыборка цветности : 4:2:0
Битовая глубина : 8 бит
Тип развёртки : Прогрессивная
Бит/(Пиксели*Кадры) : 0.248
Размер потока : 2,76 Гбайт (86%)
Язык : English
Основные цвета : BT.709-5, BT.1361, IEC 61966-2-4, SMPTE RP177
Характеристики трансфера : BT.709-5, BT.1361
Коэффициенты матрицы : BT.709-5, BT.1361, IEC 61966-2-4 709, SMPTE RP177
Аудио #1
Идентификатор : 2
Формат : AC-3
Формат/Информация : Audio Coding 3
Расширение режима : CM (complete main)
Идентификатор кодека : A_AC3
Продолжительность : 1 ч. 37 м.
Вид битрейта : Постоянный
Битрейт : 192 Кбит/сек
Каналы : 2 канала
Расположение каналов : Front: L R
Частота : 48,0 КГц
Битовая глубина : 16 бит
Метод сжатия : С потерями
Размер потока : 134 Мбайт (4%)
Язык : Russian
Аудио #2
Идентификатор : 3
Формат : AC-3
Формат/Информация : Audio Coding 3
Расширение режима : CM (complete main)
Идентификатор кодека : A_AC3
Продолжительность : 1 ч. 37 м.
Вид битрейта : Постоянный
Битрейт : 384 Кбит/сек
Каналы : 6 каналов
Расположение каналов : Front: L C R, Side: L R, LFE
Частота : 48,0 КГц
Битовая глубина : 16 бит
Метод сжатия : С потерями
Размер потока : 269 Мбайт (8%)
Язык : English
Меню
00:00:00.000 : en:1
00:06:39.000 : en:2
00:12:23.000 : en:3
00:19:23.000 : en:4
00:24:21.000 : en:5
00:31:15.000 : en:6
00:40:49.000 : en:7
00:45:29.000 : en:8
00:49:53.000 : en:9
00:55:40.000 : en:10
01:02:21.000 : en:11
01:08:45.000 : en:12
01:14:04.000 : en:13
01:17:22.000 : en:14
01:23:55.000 : en:15
01:30:25.000 : en:16
Скриншоты:
Время раздачи: 24/7 по возможности

[Цитировать]

Топик был перенесен из форума Новинки кинопроката в форум Ужасы
Henkok



Показать сообщения:    

Текущее время: 08-Дек 09:06

Часовой пояс: UTC + 3


Вы не можете начинать темы
Вы не можете отвечать на сообщения
Вы не можете редактировать свои сообщения
Вы не можете удалять свои сообщения
Вы не можете голосовать в опросах
Вы не можете прикреплять файлы к сообщениям
Вы не можете скачивать файлы

!ВНИМАНИЕ!
Сайт не предоставляет электронные версии произведений, а занимается лишь коллекционированием и каталогизацией ссылок, присылаемых и публикуемых на форуме нашими читателями. Если вы являетесь правообладателем какого-либо представленного материала и не желаете, чтобы ссылка на него находилась в нашем каталоге, свяжитесь с нами, и мы незамедлительно удалим ее. Файлы для обмена на трекере предоставлены пользователями сайта, и администрация не несет ответственности за их содержание. Просьба не заливать файлы, защищенные авторскими правами, а также файлы нелегального содержания!