[ Сегодня идет свободное скачивание без начисления Download ]


Статистика раздачи
Нет
 
   
 
Top  
 
 
-Быстрее пули / Faster (2010) BDRemux-«Правосудие не для всех» Русское название: Быстрее пули
Оригинальное название: Faster
Год выпуска: 2010
Жанр: Боевик, Триллер, Драма
Описание фильма:
После десяти лет, проведенных в тюрьме, у Драйвера одна цель: выследить и уничтожить людей, замешанных в жестоком убийстве его брата. Наконец-то обретя свободу, он готов пойти на все, чтобы выполнить свою жестокую миссию и разделаться с теми, кто попал в его черный список.
Испытать радость отмщения Драйверу мешают полицейский-ветеран и наемный убийца, каждый из которых имеет свою причину свести с ним счеты. Теперь охота ведется на охотника…
Режиссер: Джордж Тиллман мл.
Актеры: Дуэйн Джонсон, Билли Боб Торнтон, Оливер Джексон-Коэн, Карла Гуджино, Мэгги Грэйс, Мун Бладгуд, Адевале Акиннуойе-Агбадже, Том Беренджер, Маурицио Лопез, Джим Гейнс
Продолжительность: 01:37:57
Перевод: Дублированный, Одноголосый закадровый
Язык субтитров: Русские, Английские
Вид субтитров: Вшитые, отключаемые

Дата мировой премьеры: 24 ноября 2010
Дата российской премьеры: 14 апреля 2011, «Columbia/Sony»
Дата выхода DVD релиза: 26 мая 2011, «Columbia/Sony»
Видеокодек: MPEG-4 AVC/H.264
Битрейт видео: ~26,2 mb/s
Размер кадра: 1920x1080
Качество видео: BDRemux 1080p
Аудио 1: Русский (48 kHz, AC3, 3/2 (L,C,R,l,r) + LFE ch, ~640.00 kbps avg) |Дубляж, Blu-ray CEE|
Аудио 2: Украинский (48 kHz, AC3, 3/2 (L,C,R,l,r) + LFE ch, ~640.00 kbps avg) |Дубляж, Blu-ray CEE|
Аудио 3: Русский (48 kHz, DTS, 3/2 (L,C,R,l,r) + LFE ch, ~1536.00 kbps avg) |Одноголосый закадровый, А.Дасевич|
Аудио 4: Английский (DTS-HD MA 2971 kbps 5.1, 48 kHz, 2971 kbps, 24-bit (DTS Core: 5.1, 48 kHz, 1509 kbps, 24-bit)|Оригинал|

MediaInfo

Формат : Matroska
Версия формата : Version 4 / Version 2
Размер файла : 21,4 Гбайт
Продолжительность : 1 ч. 37 м.
Режим общего битрейта : Переменный
Общий поток : 31,2 Мбит/сек
Название фильма : Быстрее пули / Faster (NNM-CLUB)
Дата кодирования : UTC 2013-05-25 07:47:12
Программа кодирования : mkvmerge v6.1.0 ('Old Devil') built on Mar 4 2013 09:10:42
Библиотека кодирования : libebml v1.3.0 + libmatroska v1.4.0
Видео
Идентификатор : 1
Формат : AVC
Формат/Информация : Advanced Video Codec
Профиль формата : [email protected]
Параметр CABAC формата : Да
Параметр ReFrames формата : 2 кадра
Параметр GOP формата : M=1, N=10
Идентификатор кодека : V_MPEG4/ISO/AVC
Продолжительность : 1 ч. 37 м.
Вид битрейта : Переменный
Ширина : 1920 пикселей
Высота : 1080 пикселей
Соотношение сторон : 16:9
Режим частоты кадров : Постоянный
Частота кадров : 23,976 кадра/сек
Цветовое пространство : YUV
Субдискретизация насыщенности : 4:2:0
Битовая глубина : 8 бит
Тип развёртки : Прогрессивная
Заголовок : Faster. 2010.1080p. BD-Remux
Язык : English
Default : Нет
Forced : Нет
Аудио #1
Идентификатор : 2
Формат : AC-3
Формат/Информация : Audio Coding 3
Расширение режима : CM (complete main)
Параметр Endianness формата : Big
Идентификатор кодека : A_AC3
Продолжительность : 1 ч. 37 м.
Вид битрейта : Постоянный
Битрейт : 640 Кбит/сек
Каналы : 6 каналов
Расположение каналов : Front: L C R, Side: L R, LFE
Частота : 48,0 КГц
Битовая глубина : 16 бит
Метод сжатия : С потерями
Размер потока : 448 Мбайт (2%)
Заголовок : DUB-Blu-ray CEE
Язык : Russian
Default : Да
Forced : Нет
Аудио #2
Идентификатор : 3
Формат : AC-3
Формат/Информация : Audio Coding 3
Расширение режима : CM (complete main)
Параметр Endianness формата : Big
Идентификатор кодека : A_AC3
Продолжительность : 1 ч. 37 м.
Вид битрейта : Постоянный
Битрейт : 640 Кбит/сек
Каналы : 6 каналов
Расположение каналов : Front: L C R, Side: L R, LFE
Частота : 48,0 КГц
Битовая глубина : 16 бит
Метод сжатия : С потерями
Размер потока : 448 Мбайт (2%)
Заголовок : DUB-Blu-ray CEE
Язык : Ukrainian
Default : Нет
Forced : Нет
Аудио #3
Идентификатор : 4
Формат : DTS
Формат/Информация : Digital Theater Systems
Режим : 16
Параметр Endianness формата : Big
Идентификатор кодека : A_DTS
Продолжительность : 1 ч. 37 м.
Вид битрейта : Постоянный
Битрейт : 1510 Кбит/сек
Каналы : 6 каналов
Расположение каналов : Front: L C R, Side: L R, LFE
Частота : 48,0 КГц
Битовая глубина : 24 бит
Метод сжатия : С потерями
Размер потока : 1,03 Гбайт (5%)
Заголовок : AVO-А.Дасевич
Язык : Russian
Default : Нет
Forced : Нет
Аудио #4
Идентификатор : 5
Формат : DTS
Формат/Информация : Digital Theater Systems
Профиль формата : MA / Core
Режим : 16
Параметр Endianness формата : Big
Идентификатор кодека : A_DTS
Продолжительность : 1 ч. 37 м.
Вид битрейта : Переменный
Битрейт : Неизвестно / 1509 Кбит/сек
Каналы : 6 каналов
Расположение каналов : Front: L C R, Side: L R, LFE
Частота : 48,0 КГц
Битовая глубина : 24 бит
Метод сжатия : Без потерь / Lossy
Заголовок : Original
Язык : English
Default : Нет
Forced : Нет
Текст #1
Идентификатор : 6
Формат : UTF-8
Идентификатор кодека : S_TEXT/UTF8
Идентификатор кодека/Информация : UTF-8 Plain Text
Заголовок : Sub
Язык : Russian
Default : Да
Forced : Нет
Текст #2
Идентификатор : 7
Формат : UTF-8
Идентификатор кодека : S_TEXT/UTF8
Идентификатор кодека/Информация : UTF-8 Plain Text
Заголовок : Sub
Язык : English
Default : Нет
Forced : Нет
Меню
00:00:00.000 : en:00:00:00.000
00:07:51.012 : en:00:07:51.012
00:11:59.844 : en:00:11:59.844
00:20:57.089 : en:00:20:57.089
00:24:29.343 : en:00:24:29.343
00:30:38.837 : en:00:30:38.837
00:35:46.770 : en:00:35:46.770
00:43:30.566 : en:00:43:30.566
00:47:07.533 : en:00:47:07.533
00:54:53.040 : en:00:54:53.040
00:59:17.179 : en:00:59:17.179
01:07:08.566 : en:01:07:08.566
01:11:28.242 : en:01:11:28.242
01:17:09.083 : en:01:17:09.083
01:23:05.564 : en:01:23:05.564
01:28:45.362 : en:01:28:45.362
Скриншоты:
Время раздачи: Время раздачи с 15:00 - 04:00 по МСК

[Цитировать]



Показать сообщения:    

Текущее время: 04-Дек 04:53

Часовой пояс: UTC + 3


Вы не можете начинать темы
Вы не можете отвечать на сообщения
Вы не можете редактировать свои сообщения
Вы не можете удалять свои сообщения
Вы не можете голосовать в опросах
Вы не можете прикреплять файлы к сообщениям
Вы не можете скачивать файлы

!ВНИМАНИЕ!
Сайт не предоставляет электронные версии произведений, а занимается лишь коллекционированием и каталогизацией ссылок, присылаемых и публикуемых на форуме нашими читателями. Если вы являетесь правообладателем какого-либо представленного материала и не желаете, чтобы ссылка на него находилась в нашем каталоге, свяжитесь с нами, и мы незамедлительно удалим ее. Файлы для обмена на трекере предоставлены пользователями сайта, и администрация не несет ответственности за их содержание. Просьба не заливать файлы, защищенные авторскими правами, а также файлы нелегального содержания!