[ Сегодня идет свободное скачивание без начисления Download ]


Статистика раздачи
Скачал: [ 1 ]
 
   
 
Top  
 
 
Бэтмен возвращается
Batman Returns«Возвращение 19 июня!»-- Год выпуска: 1992
Страна: США , Великобритания
Жанр: фэнтези, боевик...
Продолжительность: 02:06:28
Перевод: Профессиональный (дублированный)
Субтитры: Russian (UTF-8), Ukrainian (UTF-8), English (UTF-8)
Режиссер: Тим Бёртон
Сценарий: Дэниэл Уотерс, Боб Кейн, Сэм Хэмм
Продюсер: Тим Бёртон, Денис Ди Нови, Йен Брюс, ...
Оператор: Стефан Чапски
Композитор: Дэнни Элфман
Художник: Бо Уэлш, Том Даффилд, Рик Хайнрихс, ...
Монтаж: Боб Бадами, Крис Лебензон
В ролях: Майкл Китон / Michael Keaton (Batman / Bruce Wayne), Дэнни ДеВито / Danny DeVito (Penguin / Oswald Cobblepot), Мишель Пфайффер / Michelle Pfeiffer (Catwoman / Selina Kyle, $ 3 000 000 ), Кристофер Уокен / Christopher Walken (Max Shreck), Майкл Гоф / Michael Gough (Alfred Pennyworth), Майкл Мерфи / Michael Murphy (The Mayor), Кристи Конэуэй / Cristi Conaway (Ice Princess), Эндрю Бринярски / Andrew Bryniarski (Charles «Chip» Shreck)

Описание: Над Готэмом нависла новая угроза. Два эксцентричных персонажа: мерзкий Пингвин, брошенный родителями и вышедший из городской канализации, и таинственная Женщина-Кошка начали борьбу за власть. Один из них намерен занять кресло мэра города, а другая испытывает романтические чувства к готемскому герою. Сможет ли Бэтмен победить таких грозных противников одновременно?
Бюджет: $80 000 000
Сборы в США: $162 831 698
Сборы в мире: + $104 000 000 = $266 831 698
Зрители: США 39.2 млн , Франция 1.24 млн , Испания 1.1 млн
Премьера (мир): 16 июня 1992, ...
Релиз на DVD: 3 марта 2011, «CP-Digital», ...
Релиз на Blu-Ray: 18 августа 2009, «Юниверсал Пикчерс Рус», ...
Рейтинг MPAA: Детям до 13 лет просмотр не желателен


Качество: BDRip.1080р
Формат: MKV
Видео кодек: AVC
Аудио кодеk: AC3
Видео: 1920x1080 (16:9), 23.976 fps, AVC, 8 169 Kbps
Аудио #1: AC3, 448 Kbps, 48.0 KHz, 6 ch (Дубляж - СЕЕ)
Аудио #2: AC3, 192 Kbps, 48.0 KHz, 2 ch (MVO - НТВ)
Аудио #3: AC3, 384 Kbps, 48.0 KHz, 6 ch (AVO - Гаврилов)
Аудио #4: AC3, 384 Kbps, 48.0 KHz, 6 ch (AVO - Живов)
Аудио #5: AC3, 448 Kbps, 48.0 KHz, 6 ch Ukr. (MVO - ICTV)
Аудио #6: AC3, 384 Kbps, 48.0 KHz, 6 ch (English)
--

МедиаИнфо

Лог:
- x264 [info]: frame I:1298 Avg QP:17.51 size:164198
- x264 [info]: frame P:41383 Avg QP:20.08 size: 76927
- x264 [info]: frame B:139260 Avg QP:22.66 size: 31218
General
Complete name : Bаtmаn.1992.BDRip.1080p.mkv
Format : Matroska
File size : 9.19 GiB
Duration : 2h 6mn
Overall bit rate : 10.4 Mbps
Encoded date : UTC 2013-05-23 22:00:38
Writing application : mkvmerge v6.1.0 ('Old Devil') built on Mar 2 2013 14:32:37
Writing library : libebml v1.3.0 + libmatroska v1.4.0
Video
ID : 1
Format : AVC
Format/Info : Advanced Video Codec
Format profile : High@L4.1
Format settings, CABAC : Yes
Format settings, ReFrames : 4 frames
Muxing mode : Container profile=Unknown@4.1
Codec ID : V_MPEG4/ISO/AVC
Duration : 2h 6mn
Bit rate : 8 169 Kbps
Width : 1 920 pixels
Height : 1 080 pixels
Display aspect ratio : 16:9
Frame rate : 23.976 fps
Color space : YUV
Chroma subsampling : 4:2:0
Bit depth : 8 bits
Scan type : Progressive
Bits/(Pixel*Frame) : 0.164
Stream size : 7.03 GiB (76%)
Writing library : x264 core 132 r2310 76a5c3a
Encoding settings : cabac=1 / ref=4 / deblock=1:-1:-1 / analyse=0x3:0x133 / me=umh / subme=10 / psy=1 / psy_rd=1.00:0.00 / mixed_ref=1 / me_range=32 / chroma_me=1 / trellis=2 / 8x8dct=1 / cqm=0 / deadzone=21,11 / fast_pskip=0 / chroma_qp_offset=-2 / threads=6 / lookahead_threads=1 / sliced_threads=0 / nr=0 / decimate=1 / interlaced=0 / bluray_compat=0 / constrained_intra=0 / bframes=8 / b_pyramid=2 / b_adapt=2 / b_bias=0 / direct=3 / weightb=1 / open_gop=0 / weightp=2 / keyint=240 / keyint_min=24 / scenecut=40 / intra_refresh=0 / rc_lookahead=50 / rc=2pass / mbtree=0 / bitrate=8169 / ratetol=2.0 / qcomp=1.00 / qpmin=0 / qpmax=51 / qpstep=4 / cplxblur=20.0 / qblur=0.5 / vbv_maxrate=37500 / vbv_bufsize=30000 / nal_hrd=none / ip_ratio=1.40 / pb_ratio=1.30 / aq=1:1.00
Color primaries : BT.709-5, BT.1361, IEC 61966-2-4, SMPTE RP177
Transfer characteristics : BT.709-5, BT.1361
Matrix coefficients : BT.709-5, BT.1361, IEC 61966-2-4 709, SMPTE RP177
Audio #1
ID : 2
Format : AC-3
Format/Info : Audio Coding 3
Mode extension : CM (complete main)
Codec ID : A_AC3
Duration : 2h 6mn
Bit rate mode : Constant
Bit rate : 448 Kbps
Channel(s) : 6 channels
Channel positions : Front: L C R, Side: L R, LFE
Sampling rate : 48.0 KHz
Bit depth : 16 bits
Video delay : 3ms
Stream size : 405 MiB (4%)
Title : Дубляж - СЕЕ
Language : Russian
Audio #2
ID : 3
Format : AC-3
Format/Info : Audio Coding 3
Mode extension : CM (complete main)
Codec ID : A_AC3
Duration : 2h 6mn
Bit rate mode : Constant
Bit rate : 192 Kbps
Channel(s) : 2 channels
Channel positions : Front: L R
Sampling rate : 48.0 KHz
Bit depth : 16 bits
Video delay : 3ms
Stream size : 174 MiB (2%)
Title : MVO - НТВ
Language : Russian
Audio #3
ID : 4
Format : AC-3
Format/Info : Audio Coding 3
Mode extension : CM (complete main)
Codec ID : A_AC3
Duration : 2h 6mn
Bit rate mode : Constant
Bit rate : 384 Kbps
Channel(s) : 6 channels
Channel positions : Front: L C R, Side: L R, LFE
Sampling rate : 48.0 KHz
Bit depth : 16 bits
Video delay : 3ms
Stream size : 347 MiB (4%)
Title : AVO - Гаврилов
Language : Russian
Audio #4
ID : 5
Format : AC-3
Format/Info : Audio Coding 3
Mode extension : CM (complete main)
Codec ID : A_AC3
Duration : 2h 6mn
Bit rate mode : Constant
Bit rate : 384 Kbps
Channel(s) : 6 channels
Channel positions : Front: L C R, Side: L R, LFE
Sampling rate : 48.0 KHz
Bit depth : 16 bits
Video delay : 3ms
Stream size : 347 MiB (4%)
Title : AVO - Живов
Language : Russian
Audio #5
ID : 6
Format : AC-3
Format/Info : Audio Coding 3
Mode extension : CM (complete main)
Codec ID : A_AC3
Duration : 2h 6mn
Bit rate mode : Constant
Bit rate : 448 Kbps
Channel(s) : 6 channels
Channel positions : Front: L C R, Side: L R, LFE
Sampling rate : 48.0 KHz
Bit depth : 16 bits
Video delay : 3ms
Stream size : 405 MiB (4%)
Title : MVO - ICTV
Language : Ukrainian
Audio #6
ID : 7
Format : AC-3
Format/Info : Audio Coding 3
Mode extension : CM (complete main)
Codec ID : A_AC3
Duration : 2h 6mn
Bit rate mode : Constant
Bit rate : 384 Kbps
Channel(s) : 6 channels
Channel positions : Front: L C R, Side: L R, LFE
Sampling rate : 48.0 KHz
Bit depth : 16 bits
Video delay : 3ms
Stream size : 347 MiB (4%)
Text #1
ID : 8
Format : UTF-8
Codec ID : S_TEXT/UTF8
Codec ID/Info : UTF-8 Plain Text
Language : Russian
Text #2
ID : 9
Format : UTF-8
Codec ID : S_TEXT/UTF8
Codec ID/Info : UTF-8 Plain Text
Language : Ukrainian
Text #3
ID : 10
Format : UTF-8
Codec ID : S_TEXT/UTF8
Codec ID/Info : UTF-8 Plain Text
Title : - SDH -
Menu
00:00:00.000 : en:00:00:00.000
00:02:23.310 : en:00:02:23.310
00:05:30.664 : en:00:05:30.664
00:07:10.096 : en:00:07:10.096
00:09:22.729 : en:00:09:22.729
00:12:48.101 : en:00:12:48.101
00:17:13.199 : en:00:17:13.199
00:23:11.557 : en:00:23:11.557
00:25:19.017 : en:00:25:19.017
00:28:30.375 : en:00:28:30.375
00:33:51.196 : en:00:33:51.196
00:40:26.924 : en:00:40:26.924
00:43:04.081 : en:00:43:04.081
00:44:12.316 : en:00:44:12.316
00:48:31.242 : en:00:48:31.242
00:54:08.412 : en:00:54:08.412
00:55:48.011 : en:00:55:48.011
00:57:59.810 : en:00:57:59.810
00:59:44.247 : en:00:59:44.247
01:02:15.732 : en:01:02:15.732
01:07:47.730 : en:01:07:47.730
01:10:02.198 : en:01:10:02.198
01:13:09.051 : en:01:13:09.051
01:17:59.341 : en:01:17:59.341
01:20:42.504 : en:01:20:42.504
01:22:29.611 : en:01:22:29.611
01:26:44.032 : en:01:26:44.032
01:31:44.999 : en:01:31:44.999
01:33:47.455 : en:01:33:47.455
01:38:13.888 : en:01:38:13.888
01:40:38.699 : en:01:40:38.699
01:42:44.158 : en:01:42:44.158
01:44:08.576 : en:01:44:08.576
01:48:42.850 : en:01:48:42.850
01:50:45.639 : en:01:50:45.639
01:53:56.163 : en:01:53:56.163
01:55:46.439 : en:01:55:46.439
01:58:21.928 : en:01:58:21.928
02:00:50.910 : en:02:00:50.910

Знаете ли Вы, что...

? ДеВито было запрещено рассказывать о своем персонаже даже родственникам.
? Злодей пытается взорвать город с помощью пингвинов, заставив их перенести на спинках динамит. Общество по защите прав животных подало иск на создателей фильма, заявив, что они жестко обращались с пингвинами. Они не знали, что настоящих пингвинов не было — это были куклы.
? Роль Женщины-кошки должна была исполнить Аннетт Бенинг, но она забеременела и выбыла из проекта. За роль сражалась Шон Янг, которой не удалось сыграть журналистку Викки в первом «Бэтмене».
? После выхода фильма Тим Бёртон вел переговоры о третьей части Бэтмена, но представители Warner Brothers дали понять о своём нежелании продолжать совместную работу.
? Композитор фильма Дэнни Эльфман присутствует в толпе в эпизоде забрасывания Человека-Пингвина гнилыми овощами.
? Имя персонажа Кристофера Уокена — это имя немецкого кино-актера Макса Шрека, прославившегося в частности исполнением роли графа Орлока, вампира в классическом фильме ужасов «Носферату. Симфония ужаса» (1922).
? Первый кинофильм, появившийся в кинотеатрах в звуке Dolby Digital.
? Джек Николсон за роль Джокера вместо гонорара получил 60 миллионов долларов за счет отчислений от прибыли и получает их до сих пор с каждого показа фильма, за что попал в «Книгу рекордов Гиннеса». Аналогичные условия выставил Денни ДеВито, но руководство компании Warner bros. ему отказало.
? В момент когда Брюс Уэйн снимает маску перед Женщиной-кошкой, мы видим что на его лице нет никакого грима. Однако в начале сцены отчетливо видна черная подводка вокруг глаз, которую носят под маской все киновоплощения Бэтмена в полнометражных фильмах.
? В марте 2008 года костюм Бэтмена (включающий в себя собственно доспехи, плащ, перчатки и маску), в котором Майкл Китон снимался в фильме, был продан с аукциона редкостей, связанных с кино, за $103,500 лицу, пожелавшему остаться неизвестным. Начальная стоимость лота равнялась $80.000.

Скриншоты

[Цитировать]



Показать сообщения:    

Текущее время: 08-Дек 12:44

Часовой пояс: UTC + 3


Вы не можете начинать темы
Вы не можете отвечать на сообщения
Вы не можете редактировать свои сообщения
Вы не можете удалять свои сообщения
Вы не можете голосовать в опросах
Вы не можете прикреплять файлы к сообщениям
Вы не можете скачивать файлы

!ВНИМАНИЕ!
Сайт не предоставляет электронные версии произведений, а занимается лишь коллекционированием и каталогизацией ссылок, присылаемых и публикуемых на форуме нашими читателями. Если вы являетесь правообладателем какого-либо представленного материала и не желаете, чтобы ссылка на него находилась в нашем каталоге, свяжитесь с нами, и мы незамедлительно удалим ее. Файлы для обмена на трекере предоставлены пользователями сайта, и администрация не несет ответственности за их содержание. Просьба не заливать файлы, защищенные авторскими правами, а также файлы нелегального содержания!