[ Сегодня идет свободное скачивание без начисления Download ]


Статистика раздачи
Нет
 
   
 
Top  
 
 
-Охотники на ведьм / Hansel & Gretel: Witch Hunters (2013) BDRip-«Новый поворот старой истории»- Год выпуска: 2013
Страна: Германия, США
Производство: Metro-Goldwyn-Mayer
Жанр: Ужасы, Фэнтези, Боевик
Режиссер: Томми Виркола
Продюсер: Уилл Феррелл, Бо Флинн, Крис Хенчи
Актеры: Джемма Артертон, Джереми Реннер, Фамке Янссен, Питер Стормаре, Зои Белл, Томас Манн, Ингрид Болсай Бердал, Дерек Мирс, Пихла Виитала, Моник Гандертон, Иоанна Кулиг, Стиг Фроде Хенриксен
Перевод: Дублированный
Вид субтитров: (SRT): Вшитые отключаемые
Язык субтитров: Русский, English
Описание фильма: Едва не погибнув в лапах ужасной ведьмы, Гензель и Гретель стали только сильнее. Одержимые местью, они ведут отчаянную борьбу со злом, даже не подозревая, что их поджидает нечто куда более опасное… собственное прошлое…-
Дата мировой премьеры: 19 января 2013
Дата российской премьеры: 17 января 2013, «Централ Партнершип»
Дата выхода DVD релиза: 10 июня 2013, «Новый Диск»
Дата выхода Blu-Ray релиза: 10 июня 2013, «Новый Диск»-Продолжительность: 01:27:56
Качество видео: BDRip (by Ash61)
Формат 3D: Half OverUnder / Вертикальная анаморфная стереопара
Порядок ракурсов: левый ракурс первый
Видео: MPEG-4 AVC/H.264 /1920х1080 / ~11.5 Мбит/сек
Аудио 1: Dolby Digital Audio / Русский / 640 kbps 5.1 / 48 kHz
Аудио 2: DTS / Русский / 1510 kbps 5.1 / 48 kHz / DN -4dB (DUB)
Аудио 3: Dolby Digital Audio / English / 640 kbps 5.1 / 48 kHz

MediaInfo 0.7.62

Общее
Уникальный идентификатор : 193424493642660853462230126355936458139 (0x918433D2598F697C9D351C5898A4359B)
Полное имя :\Hansel.and.Gretel.Witch.Hunters.1080p.BDRip.mkv
Формат : Matroska
Версия формата : Version 2
Размер файла : 8,96 Гбайт
Продолжительность : 1 ч. 27 м.
Общий поток : 14,6 Мбит/сек
Название фильма : Hansel.and.Gretel.Witch.Hunters.1080p.BDRip.NNM-CLUB
Дата кодирования : UTC 2013-05-18 07:12:47
Программа кодирования : mkvmerge v5.8.0 ('No Sleep / Pillow') built on Sep 2 2012 15:37:04
Библиотека кодирования : libebml v1.2.3 + libmatroska v1.3.0
Видео
Идентификатор : 1
Формат : AVC
Формат/Информация : Advanced Video Codec
Профиль формата : High@L4.1
Параметр CABAC формата : Да
Параметр ReFrames формата : 4 кадра
Идентификатор кодека : V_MPEG4/ISO/AVC
Продолжительность : 1 ч. 27 м.
Битрейт : 11,5 Мбит/сек
Ширина : 1920 пикселей
Высота : 1080 пикселей
Соотношение сторон : 16:9
Режим частоты кадров : Постоянный
Частота кадров : 23,976 кадра/сек
Цветовое пространство : YUV
Субдискретизация насыщенности : 4:2:0
Битовая глубина : 8 бит
Тип развёртки : Прогрессивная
Бит/(Пиксели*Кадры) : 0.231
Размер потока : 7,06 Гбайт (79%)
Заголовок : Hansel.and.Gretel.Witch.Hunters.1080p.BDRip.NNM-CLUB
Библиотека кодирования : x264 core 129 r2245 bc13772
Настройки программы : cabac=1 / ref=4 / deblock=1:-3:-3 / analyse=0x3:0x113 / me=umh / subme=9 / psy=1 / psy_rd=1.00:0.15 / mixed_ref=1 / me_range=32 / chroma_me=1 / trellis=2 / 8x8dct=1 / cqm=0 / deadzone=21,11 / fast_pskip=1 / chroma_qp_offset=-3 / threads=12 / lookahead_threads=2 / sliced_threads=0 / nr=0 / decimate=1 / interlaced=0 / bluray_compat=0 / constrained_intra=0 / bframes=7 / b_pyramid=2 / b_adapt=2 / b_bias=0 / direct=3 / weightb=1 / open_gop=0 / weightp=2 / keyint=250 / keyint_min=23 / scenecut=40 / intra_refresh=0 / rc_lookahead=60 / rc=crf / mbtree=1 / crf=17.0 / qcomp=0.70 / qpmin=0 / qpmax=69 / qpstep=4 / vbv_maxrate=40000 / vbv_bufsize=30000 / crf_max=0.0 / nal_hrd=none / frame-packing=4 / ip_ratio=1.40 / aq=1:0.70
Язык : English
Default : Да
Forced : Нет
Аудио #1
Идентификатор : 2
Формат : AC-3
Формат/Информация : Audio Coding 3
Расширение режима : CM (complete main)
Параметр Endianness формата : Big
Идентификатор кодека : A_AC3
Продолжительность : 1 ч. 27 м.
Вид битрейта : Постоянный
Битрейт : 640 Кбит/сек
Каналы : 6 каналов
Расположение каналов : Front: L C R, Side: L R, LFE
Частота : 48,0 КГц
Битовая глубина : 16 бит
Метод сжатия : С потерями
Размер потока : 403 Мбайт (4%)
Заголовок : Дубляж - AC3
Язык : Russian
Default : Да
Forced : Нет
Аудио #2
Идентификатор : 3
Формат : DTS
Формат/Информация : Digital Theater Systems
Режим : 16
Параметр Endianness формата : Big
Идентификатор кодека : A_DTS
Продолжительность : 1 ч. 27 м.
Вид битрейта : Постоянный
Битрейт : 1509 Кбит/сек
Каналы : 6 каналов
Расположение каналов : Front: L C R, Side: L R, LFE
Частота : 48,0 КГц
Битовая глубина : 24 бит
Метод сжатия : С потерями
Размер потока : 949 Мбайт (10%)
Заголовок : Дубляж - DTS
Язык : Portuguese
Default : Нет
Forced : Нет
Аудио #3
Идентификатор : 4
Формат : AC-3
Формат/Информация : Audio Coding 3
Расширение режима : CM (complete main)
Параметр Endianness формата : Big
Идентификатор кодека : A_AC3
Продолжительность : 1 ч. 27 м.
Вид битрейта : Постоянный
Битрейт : 640 Кбит/сек
Каналы : 6 каналов
Расположение каналов : Front: L C R, Side: L R, LFE
Частота : 48,0 КГц
Битовая глубина : 16 бит
Метод сжатия : С потерями
Размер потока : 403 Мбайт (4%)
Заголовок : Оригинал
Язык : English
Default : Нет
Forced : Нет
Текст #1
Идентификатор : 5
Формат : UTF-8
Идентификатор кодека : S_TEXT/UTF8
Идентификатор кодека/Информация : UTF-8 Plain Text
Язык : Russian
Default : Нет
Forced : Нет
Текст #2
Идентификатор : 6
Формат : UTF-8
Идентификатор кодека : S_TEXT/UTF8
Идентификатор кодека/Информация : UTF-8 Plain Text
Язык : English
Default : Нет
Forced : Нет
Меню
00:00:00.000 : en:Chapter 01
00:08:56.827 : en:Chapter 02
00:15:57.790 : en:Chapter 03
00:24:07.112 : en:Chapter 04
00:32:17.936 : en:Chapter 05
00:40:12.868 : en:Chapter 06
00:46:45.636 : en:Chapter 07
00:52:22.097 : en:Chapter 08
01:00:20.033 : en:Chapter 09
01:05:05.651 : en:Chapter 10
01:12:49.656 : en:Chapter 11
01:19:01.820 : en:Chapter 12

Знаете ли Вы, что...

Первоначально на роль Гретель пробовались Дайан Крюгер, Ева Грин и Нуми Рапас.
В своем интервью на фестивале в Каннах в 2011 году Фамке Янссен заявила, что она согласилась на роль предводительницы ведьм, потому что ей нужно было выплачивать долги. Янссен неоднократно упоминала, начиная с 2007 года, что готовит фильм «Плохая мамочка» (2011), где она дебютировала как режиссер/сценарист. Финансирование и распространение фильма пережили нелегкие времена, отчасти из-за экономического кризиса 2008 года. К тому же она практически нигде не снималась в тот период.
Скриншоты:



Время раздачи: круглогодичноИграю на аккордеоне за "Спасибо"

[Цитировать]



Показать сообщения:    

Текущее время: 25-Май 16:37

Часовой пояс: UTC + 6


Вы не можете начинать темы
Вы не можете отвечать на сообщения
Вы не можете редактировать свои сообщения
Вы не можете удалять свои сообщения
Вы не можете голосовать в опросах
Вы не можете прикреплять файлы к сообщениям
Вы не можете скачивать файлы

!ВНИМАНИЕ!
Сайт не предоставляет электронные версии произведений, а занимается лишь коллекционированием и каталогизацией ссылок, присылаемых и публикуемых на форуме нашими читателями. Если вы являетесь правообладателем какого-либо представленного материала и не желаете, чтобы ссылка на него находилась в нашем каталоге, свяжитесь с нами, и мы незамедлительно удалим ее. Файлы для обмена на трекере предоставлены пользователями сайта, и администрация не несет ответственности за их содержание. Просьба не заливать файлы, защищенные авторскими правами, а также файлы нелегального содержания!