[ Сегодня идет свободное скачивание без начисления Download ]


Статистика раздачи
Нет
 
   
 
Top  
 
 
-Хоббит: Нежданное путешествие / The Hobbit: An Unexpected Journey (2012) BDRip 3D
«From the smallest beginnings come the greatest legends.»
- Год выпуска: 2012
Страна: США, Новая Зеландия
Производство: New Line Cinema / Metro-Goldwyn-Mayer
Жанр: Фэнтези, приключения
Режиссер: Питер Джексон
Актеры: Мартин Фриман, Иэн МакКеллен, Ричард Армитэдж, Джеймс Несбитт, Кен Стотт, Кейт Бланшетт, Элайджа Вуд, Хьюго Уивинг, Кристофер Ли, Энди Серкис
Перевод: Дублированный (лицензия) / Одноголосый закадровый (Ю. Сербин)
Субтитры: Вшитые отключаемые
Язык субтитров: Русский (форсированные, полные Voronine, полные Blu-ray CEE), украинский (форсированные), английский (SDH, цветные SDH)
Описание фильма: Фильм повествует о путешествии Бильбо Бэггинса, который пускается в поход, целью которого является отвоевание утраченного королевства гномов Эребор у зловещего дракона Смога. Совершенно неожиданно с хоббитом налаживает контакт волшебник Гэндальф Серый. Так Бильбо находит себя, присоединяясь к компании тринадцати гномов, возглавляемых легендарным воином, Торином Дубощитом. Их путешествие проляжет через Дикий Край, через предательские земли, населенные гоблинами и орками, смертоносными варгами и гигантскими пауками, народом, меняющим шкуры, и волшебниками. И хотя их цель находится на Востоке среди пустошей Одинокой Горы, сначала им придется выбраться из туннелей гоблинов, где Бильбо встретит существо, которое изменит его жизнь навсегда… Голлума.

Дата мировой премьеры: 28 ноября 2012
Дата российской премьеры: 19 декабря 2012, «Каро-Премьер»
Дата выхода DVD релиза: 11 апреля 2013, «CP Дистрибуция»
Дата выхода Blu-Ray релиза: 11 апреля 2013, «CP Дистрибуция»
Рейтинг PG-13 - Детям до 13 лет просмотр не желателен
Продолжительность: 02:49:41
Качество видео: BDRip 3D
Видео: MPEG4_AVC/H.264, 1920x1080, ~12500 kbps, 23.976 fps
Аудио 1: AC3 5.1, 448 kbps [Русский - дублированный Blu-ray CEE]
Аудио 2: AC3 5.1, 640 kbps [Русский - одноголосый закадровый «Ю. Сербин»]
Аудио 3: AC3 5.1, 448 kbps [Украинский - дублированный Blu-ray CEE]
Аудио 4: AC3 5.1, 640 kbps [Английский - оригинал]

MediaInfo...

Полное имя : D:\Хоббит.Нежданное.путешествие-The Hobbit.An.Unexpected.Journey.(2012).BDRip.[1080p].3D.mkv
Формат : Matroska
Версия формата : Version 2
Размер файла : 17,8 Гбайт
Продолжительность : 2 ч. 49 м.
Общий поток : 15,0 Мбит/сек
Дата кодирования : UTC 2013-04-04 09:49:36
Программа кодирования : mkvmerge v5.7.0 ('The Whirlwind') built on Aug 7 2012 14:11:40
Библиотека кодирования : libebml v1.2.3 + libmatroska v1.3.0
Видео
Идентификатор : 1
Формат : AVC
Формат/Информация : Advanced Video Codec
Профиль формата : [email protected]
Параметр CABAC формата : Да
Параметр ReFrames формата : 4 кадра
Идентификатор кодека : V_MPEG4/ISO/AVC
Продолжительность : 2 ч. 49 м.
Битрейт : 12,5 Мбит/сек
Ширина : 1920 пикселей
Высота : 1080 пикселей
Соотношение сторон : 16:9
Режим частоты кадров : Постоянный
Частота кадров : 23,976 кадра/сек
Цветовое пространство : YUV
Субдискретизация насыщенности : 4:2:0
Битовая глубина : 8 бит
Тип развёртки : Прогрессивная
Бит/(Пиксели*Кадры) : 0.252
Размер потока : 14,8 Гбайт (83%)
Библиотека кодирования : x264 core 120 r2145 748fe16
Настройки программы : cabac=1 / ref=4 / deblock=1:-3:-3 / analyse=0x3:0x113 / me=umh / subme=9 / psy=1 / psy_rd=1.00:0.00 / mixed_ref=1 / me_range=16 / chroma_me=1 / trellis=2 / 8x8dct=1 / cqm=0 / deadzone=21,11 / fast_pskip=1 / chroma_qp_offset=-2 / threads=9 / sliced_threads=0 / nr=0 / decimate=1 / interlaced=0 / bluray_compat=0 / constrained_intra=0 / bframes=6 / b_pyramid=2 / b_adapt=2 / b_bias=0 / direct=3 / weightb=1 / open_gop=0 / weightp=2 / keyint=250 / keyint_min=23 / scenecut=40 / intra_refresh=0 / rc_lookahead=60 / rc=crf / mbtree=1 / crf=17.0 / qcomp=0.60 / qpmin=1 / qpmax=69 / qpstep=4 / ip_ratio=1.40 / aq=1:1.00
Язык : English
Default : Да
Forced : Нет
Аудио #1
Идентификатор : 2
Формат : AC-3
Формат/Информация : Audio Coding 3
Расширение режима : CM (complete main)
Параметр Endianness формата : Big
Идентификатор кодека : A_AC3
Продолжительность : 2 ч. 49 м.
Вид битрейта : Постоянный
Битрейт : 448 Кбит/сек
Каналы : 6 каналов
Расположение каналов : Front: L C R, Side: L R, LFE
Частота : 48,0 КГц
Битовая глубина : 16 бит
Метод сжатия : С потерями
Размер потока : 544 Мбайт (3%)
Заголовок : AC3 5.1 / 448 kbps / Dub
Язык : Russian
Default : Да
Forced : Нет
Аудио #2
Идентификатор : 3
Формат : AC-3
Формат/Информация : Audio Coding 3
Расширение режима : CM (complete main)
Параметр Endianness формата : Big
Идентификатор кодека : A_AC3
Продолжительность : 2 ч. 49 м.
Вид битрейта : Постоянный
Битрейт : 640 Кбит/сек
Каналы : 6 каналов
Расположение каналов : Front: L C R, Side: L R, LFE
Частота : 48,0 КГц
Битовая глубина : 16 бит
Метод сжатия : С потерями
Размер потока : 777 Мбайт (4%)
Заголовок : AC3 5.1 / 640 kbps / AVO - Ю.Сербин
Язык : Russian
Default : Нет
Forced : Нет
Аудио #3
Идентификатор : 4
Формат : AC-3
Формат/Информация : Audio Coding 3
Расширение режима : CM (complete main)
Параметр Endianness формата : Big
Идентификатор кодека : A_AC3
Продолжительность : 2 ч. 49 м.
Вид битрейта : Постоянный
Битрейт : 448 Кбит/сек
Каналы : 6 каналов
Расположение каналов : Front: L C R, Side: L R, LFE
Частота : 48,0 КГц
Битовая глубина : 16 бит
Метод сжатия : С потерями
Размер потока : 544 Мбайт (3%)
Заголовок : AC3 5.1 / 448 kbps / Dub
Язык : Ukrainian
Default : Нет
Forced : Нет
Аудио #4
Идентификатор : 5
Формат : AC-3
Формат/Информация : Audio Coding 3
Расширение режима : CM (complete main)
Параметр Endianness формата : Big
Идентификатор кодека : A_AC3
Продолжительность : 2 ч. 49 м.
Вид битрейта : Постоянный
Битрейт : 640 Кбит/сек
Каналы : 6 каналов
Расположение каналов : Front: L C R, Side: L R, LFE
Частота : 48,0 КГц
Битовая глубина : 16 бит
Метод сжатия : С потерями
Размер потока : 777 Мбайт (4%)
Заголовок : AC3 5.1 / 640 kbps / Original
Язык : English
Default : Нет
Forced : Нет
Текст #1
Идентификатор : 6
Формат : UTF-8
Идентификатор кодека : S_TEXT/UTF8
Идентификатор кодека/Информация : UTF-8 Plain Text
Заголовок : Forced
Язык : Russian
Default : Да
Forced : Нет
Текст #2
Идентификатор : 7
Формат : UTF-8
Идентификатор кодека : S_TEXT/UTF8
Идентификатор кодека/Информация : UTF-8 Plain Text
Заголовок : Full / Blu-ray
Язык : Russian
Default : Нет
Forced : Нет
Текст #3
Идентификатор : 8
Формат : UTF-8
Идентификатор кодека : S_TEXT/UTF8
Идентификатор кодека/Информация : UTF-8 Plain Text
Заголовок : Full / Voronine
Язык : Russian
Default : Нет
Forced : Нет
Текст #4
Идентификатор : 9
Формат : UTF-8
Идентификатор кодека : S_TEXT/UTF8
Идентификатор кодека/Информация : UTF-8 Plain Text
Заголовок : Forced
Язык : Ukrainian
Default : Нет
Forced : Нет
Текст #5
Идентификатор : 10
Формат : UTF-8
Идентификатор кодека : S_TEXT/UTF8
Идентификатор кодека/Информация : UTF-8 Plain Text
Заголовок : SDH
Язык : English
Default : Нет
Forced : Нет
Текст #6
Идентификатор : 11
Формат : UTF-8
Идентификатор кодека : S_TEXT/UTF8
Идентификатор кодека/Информация : UTF-8 Plain Text
Заголовок : SDH (Color)
Язык : English
Default : Нет
Forced : Нет
Меню
00:00:00.000 : :Chapter 01
00:08:51.530 : :Chapter 02
00:12:58.903 : :Chapter 03
00:16:34.618 : :Chapter 04
00:20:50.666 : :Chapter 05
00:25:09.007 : :Chapter 06
00:33:14.409 : :Chapter 07
00:38:26.804 : :Chapter 08
00:43:40.367 : :Chapter 09
00:50:12.300 : :Chapter 10
00:55:16.938 : :Chapter 11
00:57:04.838 : :Chapter 12
01:07:51.984 : :Chapter 13
01:12:11.368 : :Chapter 14
01:16:03.559 : :Chapter 15
01:22:06.463 : :Chapter 16
01:28:49.991 : :Chapter 17
01:32:03.518 : :Chapter 18
01:33:44.493 : :Chapter 19
01:43:10.850 : :Chapter 20
01:49:16.966 : :Chapter 21
01:54:08.590 : :Chapter 22
01:57:02.097 : :Chapter 23
02:10:31.948 : :Chapter 24
02:12:30.024 : :Chapter 25
02:13:41.721 : :Chapter 26
02:18:03.440 : :Chapter 27
02:20:13.362 : :Chapter 28
02:23:03.115 : :Chapter 29
02:34:02.565 : :Chapter 30
02:39:31.561 : :Chapter 31

Дополнительная информация...

Внимание! Справа и слева у видеоряда обрезано по 248р, что дает возможность просмотра на полный экран (без черных полос) на телевизорах с соотношением сторон 16:9 без изменения пропорций.
Скриншоты:


Время раздачи: 24/7 (до 10 скачавших)

[Цитировать]



Показать сообщения:    

Текущее время: 05-Дек 07:26

Часовой пояс: UTC + 3


Вы не можете начинать темы
Вы не можете отвечать на сообщения
Вы не можете редактировать свои сообщения
Вы не можете удалять свои сообщения
Вы не можете голосовать в опросах
Вы не можете прикреплять файлы к сообщениям
Вы не можете скачивать файлы

!ВНИМАНИЕ!
Сайт не предоставляет электронные версии произведений, а занимается лишь коллекционированием и каталогизацией ссылок, присылаемых и публикуемых на форуме нашими читателями. Если вы являетесь правообладателем какого-либо представленного материала и не желаете, чтобы ссылка на него находилась в нашем каталоге, свяжитесь с нами, и мы незамедлительно удалим ее. Файлы для обмена на трекере предоставлены пользователями сайта, и администрация не несет ответственности за их содержание. Просьба не заливать файлы, защищенные авторскими правами, а также файлы нелегального содержания!