[ Сегодня идет свободное скачивание без начисления Download ]


Статистика раздачи
Нет
 
   
 
Top  
 
 
-Легенда №17 (2013) DVD5- Русское название: Легенда №17
Год выпуска: 2013
Производство: Россия
Жанр: Спорт, Драма, Биография
Перевод: Не требуется [Русский]
Субтитры: Отсутствуют
Режиссер: Николай Лебедев
Актеры: Данила Козловский, Олег Меньшиков, Светлана Иванова, Владимир Меньшов, Александр Лобанов, Сергей Генкин, Роман Мадянов, Александр Яковлев, Алехандра Грепи, Борис Щербаков
Описание фильма:
2 сентября 1972 года. Монреаль. Хоккейная сборная СССР с разгромным счетом 7:3 победила канадских профессионалов из НХЛ в стартовом матче эпохальной Суперсерии СССР-Канада. Это была не просто игра, это была битва за свою страну, которая перевернула мировое представление о хоккее. Теперь весь мир знал его просто по номеру «17». Валерий Харламов, забивший в том матче 2 шайбы, мгновенно взлетел на вершину славы. Сбылась его мечта -упорство, спортивный талант и суровые уроки великого тренера Анатолия Тарасова сделали из «номера 17» легенду мирового хоккея.-Дата мировой премьеры: 18 апреля 2013
Дата российской премьеры: 18 апреля 2013, «Централ Партнершип»
Дата выхода DVD/Blu-Ray релиза: 30 мая 2013, «CP Дистрибуция»
-Продолжительность: 02:08:32
Качество видео: DVD5-Видео: MPEG-2, 720x576@1024х576 (PAL 16:9), ~4669 Кбит/сек
Аудио: AC3 5.1, 448 Кбит/сек [Русский]

DVDInfo:

Title: Легенда №17 (2013) DVD5
Size: 4.37 Gb ( 4 585 820,00 KBytes ) - DVD-5
Enabled regions: 1, 2, 3, 4, 5, 6, 7, 8
VTS_01 :
Play Length: 02:08:32
Video: PAL 16:9 (720x576) VBR, Auto Letterboxed
Audio:
Russian (Dolby AC3, 6 ch)
* Menus Information *
VIDEO_TS Menu
Video:
PAL 4:3 (720x576) VBR
Auto Pan&Scan, Auto Letterboxed
Language Unit :
VTS_01 Menu
Video:
PAL 16:9 (720x576) VBR
Auto Letterboxed
Audio:
Not specified (Dolby AC3, 2 ch)
English Language Unit :
Root Menu

MediaInfo:

Общее
Полное имя : D:\ФИЛЬМЫ\Легенда №17 (2013) DVD5\VIDEO_TS\VTS_01_1.VOB
Формат : MPEG-PS
Размер файла : 1024 Мбайт
Продолжительность : 27 м.
Режим общего битрейта : Переменный
Общий поток : 5221 Кбит/сек
Видео
Идентификатор : 224 (0xE0)
Формат : MPEG Video
Версия формата : Version 2
Профиль формата : Main@Main
Параметр BVOP формата : Да
Параметр матрицы формата : Выборочная
Параметр GOP формата : Variable
Продолжительность : 27 м.
Вид битрейта : Переменный
Битрейт : 4669 Кбит/сек
Максимальный битрейт : 8761 Кбит/сек
Ширина : 720 пикселей
Высота : 576 пикселей
Соотношение сторон : 16:9
Частота кадров : 25,000 кадров/сек
Стандарт вещания : PAL
Цветовое пространство : YUV
Субдискретизация насыщенности : 4:2:0
Битовая глубина : 8 бит
Тип развёртки : Прогрессивная
Порядок развёртки : Нижнее поле первое
Метод сжатия : С потерями
Бит/(Пиксели*Кадры) : 0.450
TimeCode_FirstFrame : 00:00:00:00
TimeCode_Source : Group of pictures header
Размер потока : 916 Мбайт (89%)
Аудио
Идентификатор : 189 (0xBD)-128 (0x80)
Формат : AC-3
Формат/Информация : Audio Coding 3
Расширение режима : CM (complete main)
Параметр Endianness формата : Big
Режим смешивания : DVD-Video
Продолжительность : 27 м.
Вид битрейта : Постоянный
Битрейт : 448 Кбит/сек
Каналы : 6 каналов
Расположение каналов : Front: L C R, Side: L R, LFE
Частота : 48,0 КГц
Битовая глубина : 16 бит
Метод сжатия : С потерями
Размер потока : 87,9 Мбайт (9%)
Меню

Дополнительная информация:

Удалена вся реклама, пред. надписи, допы и звуковая дорожка DTS, команды диска переписаны заново, обездвижено меню, деактивированы и затерты лишние кнопки на главном меню, использованы программы DVDRemake, MuxMan и Фотошоп. При помощи DVDRebuilder в связке с ССЕ сжато видео диска на 27.4 %За DVD5 спасибо большое avproh

Скриншоты меню:

-Скриншоты:
Время раздачи: С 10:00 до 22:00 (до 10 скачавших)

[Цитировать]



Показать сообщения:    

Текущее время: 08-Дек 07:04

Часовой пояс: UTC + 3


Вы не можете начинать темы
Вы не можете отвечать на сообщения
Вы не можете редактировать свои сообщения
Вы не можете удалять свои сообщения
Вы не можете голосовать в опросах
Вы не можете прикреплять файлы к сообщениям
Вы не можете скачивать файлы

!ВНИМАНИЕ!
Сайт не предоставляет электронные версии произведений, а занимается лишь коллекционированием и каталогизацией ссылок, присылаемых и публикуемых на форуме нашими читателями. Если вы являетесь правообладателем какого-либо представленного материала и не желаете, чтобы ссылка на него находилась в нашем каталоге, свяжитесь с нами, и мы незамедлительно удалим ее. Файлы для обмена на трекере предоставлены пользователями сайта, и администрация не несет ответственности за их содержание. Просьба не заливать файлы, защищенные авторскими правами, а также файлы нелегального содержания!