[ Сегодня идет свободное скачивание без начисления Download ]


Статистика раздачи
Нет
 
   
 
Top  
 
 
-Охотники на ведьм / Hansel & Gretel: Witch Hunters (2013) BDRip
[Театральная версия / Theatrical Cut]
-«Новый поворот старой истории»- Русское название: Охотники на ведьм
Оригинальное название: Hansel & Gretel: Witch Hunters
Год выпуска: 2013
Производство: США, Германия
Жанр: Ужасы, Фэнтези, Боевик
Перевод: Дублированный
Дата мировой премьеры: 19 января 2013
Дата российской премьеры: 17 января 2013, «Централ Партнершип»
Дата выхода DVD релиза: 10 июня 2013, «Новый Диск»
Дата выхода BLU-RAY релиза: 10 июня 2013, «Новый Диск»
Режиссер: Томми Виркола
Продюсер: Уилл Феррелл, Бо Флинн, Крис Хенчи
Актеры: Джереми Реннер, Джемма Артертон, Фамке Янссен, Пихла Виитала, Дерек Мирс, Робин Аткин Даунс, Ингрид Болсай Бердал, Джоэнна Кулиг, Томас Манн, Петер Стормаре
Роли дублировали: Илья Исаев, Ирина Киреева, Ольга Плетнёва, Николай Быстров, Андрей Данилюк, ...
Описание фильма:
Едва не погибнув в лапах ужасной ведьмы, Гензель и Гретель стали только сильнее. Одержимые местью, они ведут отчаянную борьбу со злом, даже не подозревая, что их поджидает нечто куда более опасное… собственное прошлое…-
Рейтинг PG - лицам до 17 лет обязательно присутствие взрослого
Возраст 18+ - зрителям, достигшим 18 лет-Продолжительность: 01:27:56
Качество видео: BDRip / за исходник спасибо:
Видеокодек: MPEG-4 AVC/H.264
Битрейт видео: ~13,9 Мбит/сек
Размер кадра: 1920x1080
Аудио №1: AC3 5.1, 640 kbps - Русский
Аудио №2: AC3 5.1, 640 kbps - Английский-

Media info:

Общее
Уникальный идентификатор : 222642037679854501583562934518952861475 (0xA77F4BF6266C50AB8B857D66F3D99F23)
Полное имя : E:\my films\HNSL AND GRTL 3D.mkv
Формат : Matroska
Версия формата : Version 2
Размер файла : 9,50 Гбайт
Продолжительность : 1 ч. 27 м.
Общий поток : 15,5 Мбит/сек
Название фильма : HNSL AND GRTL 3D CROP O/U
Дата кодирования : UTC 2013-05-18 11:11:18
Программа кодирования : mkvmerge v5.7.0 ('The Whirlwind') built on Aug 7 2012 14:11:40
Библиотека кодирования : libebml v1.2.3 + libmatroska v1.3.0
Видео
Идентификатор : 1
Формат : AVC
Формат/Информация : Advanced Video Codec
Профиль формата : High@L4.1
Параметр CABAC формата : Да
Параметр ReFrames формата : 4 кадра
Идентификатор кодека : V_MPEG4/ISO/AVC
Продолжительность : 1 ч. 27 м.
Битрейт : 13,9 Мбит/сек
Ширина : 1920 пикселей
Высота : 1080 пикселей
Соотношение сторон : 16:9
Режим частоты кадров : Постоянный
Частота кадров : 23,976 кадра/сек
Цветовое пространство : YUV
Субдискретизация насыщенности : 4:2:0
Битовая глубина : 8 бит
Тип развёртки : Прогрессивная
Бит/(Пиксели*Кадры) : 0.279
Размер потока : 8,52 Гбайт (90%)
Заголовок : rip by I/N
Библиотека кодирования : x264 core 128 r2216M 198a7ea
Настройки программы : cabac=1 / ref=4 / deblock=1:-3:-3 / analyse=0x3:0x133 / me=umh / subme=9 / psy=1 / psy_rd=1.00:0.15 / mixed_ref=1 / me_range=32 / chroma_me=1 / trellis=2 / 8x8dct=1 / cqm=0 / deadzone=21,11 / fast_pskip=1 / chroma_qp_offset=-3 / threads=4 / lookahead_threads=1 / sliced_threads=0 / nr=0 / decimate=1 / interlaced=0 / bluray_compat=0 / constrained_intra=0 / bframes=4 / b_pyramid=2 / b_adapt=2 / b_bias=0 / direct=1 / weightb=1 / open_gop=0 / weightp=2 / keyint=230 / keyint_min=23 / scenecut=40 / intra_refresh=0 / rc_lookahead=60 / rc=crf / mbtree=1 / crf=17.0 / qcomp=0.60 / qpmin=0 / qpmax=69 / qpstep=4 / vbv_maxrate=40000 / vbv_bufsize=30000 / crf_max=30.0 / nal_hrd=none / ip_ratio=1.40 / aq=1:0.70
Default : Да
Forced : Да
Аудио #1
Идентификатор : 2
Формат : AC-3
Формат/Информация : Audio Coding 3
Расширение режима : CM (complete main)
Параметр Endianness формата : Big
Идентификатор кодека : A_AC3
Продолжительность : 1 ч. 27 м.
Вид битрейта : Постоянный
Битрейт : 640 Кбит/сек
Каналы : 6 каналов
Расположение каналов : Front: L C R, Side: L R, LFE
Частота : 48,0 КГц
Битовая глубина : 16 бит
Метод сжатия : С потерями
Размер потока : 403 Мбайт (4%)
Заголовок : Дубляж
Язык : Russian
Default : Да
Forced : Да
Аудио #2
Идентификатор : 3
Формат : AC-3
Формат/Информация : Audio Coding 3
Расширение режима : CM (complete main)
Параметр Endianness формата : Big
Идентификатор кодека : A_AC3
Продолжительность : 1 ч. 27 м.
Вид битрейта : Постоянный
Битрейт : 640 Кбит/сек
Каналы : 6 каналов
Расположение каналов : Front: L C R, Side: L R, LFE
Частота : 48,0 КГц
Битовая глубина : 16 бит
Метод сжатия : С потерями
Размер потока : 403 Мбайт (4%)
Заголовок : Original
Язык : English
Default : Нет
Forced : Нет
Меню
00:00:00.000 : en:(01)00:00:00:000
00:08:56.827 : en:(02)00:08:56:827
00:15:57.790 : en:(03)00:15:57:790
00:24:07.112 : en:(04)00:24:07:112
00:32:17.936 : en:(05)00:32:17:936
00:40:12.868 : en:(06)00:40:12:868
00:46:45.636 : en:(07)00:46:45:636
00:52:22.097 : en:(08)00:52:22:097
01:00:20.033 : en:(09)01:00:20:033
01:05:05.651 : en:(10)01:05:05:651
01:12:49.656 : en:(11)01:12:49:656
01:19:01.820 : en:(12)01:19:01:820
01:27:56.229 : en:(13)01:27:56:229
Проверено на встроенном плейере ТВ Samsung-D6500Скриншоты:

Особенности релиза:

Справа и слева у видеоряда обрезано по 248р, что дает возможность просмотра на полный экран (без черных полос) на телевизорах с соотношением сторон 16:9 без изменения пропорций. На мой взгляд плюсы данных рипов- это более глубокое восприятие 3D-эффектов (конечно там где они есть) К минусам отнесу- вынужденное обрезание кадра по бокам. Так-что господа- выбор за вами! Всем приятного просмотра!
Время раздачи: 24/7 - круглосуточно до 10 скачавших

[Цитировать]



Показать сообщения:    

Текущее время: 10-Дек 19:44

Часовой пояс: UTC + 3


Вы не можете начинать темы
Вы не можете отвечать на сообщения
Вы не можете редактировать свои сообщения
Вы не можете удалять свои сообщения
Вы не можете голосовать в опросах
Вы не можете прикреплять файлы к сообщениям
Вы не можете скачивать файлы

!ВНИМАНИЕ!
Сайт не предоставляет электронные версии произведений, а занимается лишь коллекционированием и каталогизацией ссылок, присылаемых и публикуемых на форуме нашими читателями. Если вы являетесь правообладателем какого-либо представленного материала и не желаете, чтобы ссылка на него находилась в нашем каталоге, свяжитесь с нами, и мы незамедлительно удалим ее. Файлы для обмена на трекере предоставлены пользователями сайта, и администрация не несет ответственности за их содержание. Просьба не заливать файлы, защищенные авторскими правами, а также файлы нелегального содержания!