[ Сегодня идет свободное скачивание без начисления Download ]


Статистика раздачи
Нет
 
   
 
Top  
 
 
-Кошмар на улице Вязов / A Nightmare on Elm Street (1984)
[1080p] BDRip [60 fps]
- Русское название: Кошмар на улице Вязов
Оригинальное название: A Nightmare on Elm Street
Год выпуска: 1984
Производство: США
Жанр: Ужасы
Перевод:
Профессиональный (двухголосый закадровый) - НТВ (Любовь Германова и Александр Рахленко)
Профессиональный (многоголосый закадровый) - Позитив
Профессиональный (многоголосый закадровый) - Киномания
Профессиональный (многоголосый закадровый) - CP Digital
Авторский (одноголосый закадровый) - Гаврилов
Авторский (одноголосый закадровый) - Володарский
Авторский (одноголосый закадровый) - Горчаков
Оригинальный - Английский-Дата мировой премьеры: 9 ноября 1984
Дата выхода DVD релиза: 14 августа 2008, «CP-Digital»-Режиссер: Уэс Крэйвен
Продюсер: Роберт Шэй, Джон Берроуз, Стэнли Дьюделсон
Актеры: Хезер Лэнгенкэмп, Рони Блейкли, Джон Сэксон, Аманда Уайсс, Роберт Инглунд, Джонни Депп, Чарльз Флайшер, Джозеф Випп, Джейсу Гарсия, Лин Шэй, Джо Ангер-Описание фильма:
Старшеклассников одной из школ Спрингвуда, преследует один и тот же кошмарный сон в котором за ними гонится и кромсает на куски изуродованный человек в шляпе и с ножами на своей перчатке. И тот, кого убили во сне — умирает в реальности… Оказывается много лет назад, герой сна — Фредди Крюгер был маньяком, совершившим несколько зверских убийств детей. Их родители, не дожидаясь суда, линчевали Фредди, спалив заживо в котельной. И теперь Фредди пришел отомстить…- -Продолжительность: 01:31:14
Качество видео: BDRip

Дополнительно :

Перед тем , как качать основной файл , скачивайте сэмпл , для проверки воспроизведения данного релиза на вашем оборудовании !!!

MediaInfo + Bitrate Viewer

Writing application : mkvmerge v3.4.0 ('Rapunzel') сборка от May 15 2010 09:38:20
Writing library : libebml v0.8.0 + libmatroska v0.9.0

Video
ID : 1
Format : AVC
Format/Info : Advanced Video Codec
Format profile : High@L4.1
Format settings, CABAC : Yes
Format settings, ReFrames : 4 frames
Codec ID : V_MPEG4/ISO/AVC
Bit rate : 30.0 Mbps
Width : 1 920 pixels
Height : 1 080 pixels
Display aspect ratio : 16:9
Frame rate mode : Variable
Original frame rate : 59.940 fps
Color space : YUV
Chroma subsampling : 4:2:0
Bit depth : 8 bits
Scan type : Progressive
Bits/(Pixel*Frame) : 0.242
Writing library : x264 core 130 r2273 b3065e6
Encoding settings : cabac=1 / ref=4 / deblock=1:-3:-3 / analyse=0x3:0x133 / me=esa / subme=10 / psy=1 / psy_rd=1.00:0.00 / mixed_ref=1 / me_range=35 / chroma_me=1 / trellis=2 / 8x8dct=1 / cqm=0 / deadzone=21,11 / fast_pskip=1 / chroma_qp_offset=-2 / threads=12 / lookahead_threads=2 / sliced_threads=0 / nr=0 / decimate=1 / interlaced=0 / bluray_compat=0 / constrained_intra=0 / bframes=8 / b_pyramid=2 / b_adapt=2 / b_bias=0 / direct=3 / weightb=1 / open_gop=0 / weightp=2 / keyint=599 / keyint_min=59 / scenecut=40 / intra_refresh=0 / rc_lookahead=60 / rc=2pass / mbtree=1 / bitrate=30026 / ratetol=1.0 / qcomp=0.60 / qpmin=0 / qpmax=69 / qpstep=4 / cplxblur=20.0 / qblur=0.5 / vbv_maxrate=62500 / vbv_bufsize=78125 / nal_hrd=none / ip_ratio=1.40 / aq=1:1.00
Language : English
Default : No
Forced : No
Audio #1
ID : 2
Format : AC-3
Format/Info : Audio Coding 3
Mode extension : CM (complete main)
Format settings, Endianness : Big
Codec ID : A_AC3
Duration : 1h 31mn
Bit rate mode : Constant
Bit rate : 192 Kbps
Channel(s) : 2 channels
Channel positions : Front: L R
Sampling rate : 48.0 KHz
Bit depth : 16 bits
Compression mode : Lossy
Stream size : 125 MiB (1%)
Title : НТВ (Александр Рахленко, Любовь Германова)
Language : Russian
Default : No
Forced : No
Audio #2
ID : 3
Format : AC-3
Format/Info : Audio Coding 3
Mode extension : CM (complete main)
Format settings, Endianness : Big
Codec ID : A_AC3
Duration : 1h 31mn
Bit rate mode : Constant
Bit rate : 640 Kbps
Channel(s) : 6 channels
Channel positions : Front: L C R, Side: L R, LFE
Sampling rate : 48.0 KHz
Bit depth : 16 bits
Compression mode : Lossy
Stream size : 418 MiB (2%)
Title : Позитив
Language : Russian
Default : No
Forced : No
Audio #3
ID : 4
Format : AC-3
Format/Info : Audio Coding 3
Mode extension : CM (complete main)
Format settings, Endianness : Big
Codec ID : A_AC3
Duration : 1h 31mn
Bit rate mode : Constant
Bit rate : 640 Kbps
Channel(s) : 6 channels
Channel positions : Front: L C R, Side: L R, LFE
Sampling rate : 48.0 KHz
Bit depth : 16 bits
Compression mode : Lossy
Stream size : 418 MiB (2%)
Title : Киномания
Language : Russian
Default : No
Forced : No
Audio #4
ID : 5
Format : AC-3
Format/Info : Audio Coding 3
Mode extension : CM (complete main)
Format settings, Endianness : Big
Codec ID : A_AC3
Duration : 1h 31mn
Bit rate mode : Constant
Bit rate : 640 Kbps
Channel(s) : 6 channels
Channel positions : Front: L C R, Side: L R, LFE
Sampling rate : 48.0 KHz
Bit depth : 16 bits
Compression mode : Lossy
Stream size : 418 MiB (2%)
Title : CP Digital
Language : Russian
Default : No
Forced : No
Audio #5
ID : 6
Format : AC-3
Format/Info : Audio Coding 3
Mode extension : CM (complete main)
Format settings, Endianness : Big
Codec ID : A_AC3
Duration : 1h 31mn
Bit rate mode : Constant
Bit rate : 640 Kbps
Channel(s) : 6 channels
Channel positions : Front: L C R, Side: L R, LFE
Sampling rate : 48.0 KHz
Bit depth : 16 bits
Compression mode : Lossy
Stream size : 418 MiB (2%)
Title : Андрей Гаврилов
Language : Russian
Default : No
Forced : No
Audio #6
ID : 7
Format : AC-3
Format/Info : Audio Coding 3
Mode extension : CM (complete main)
Format settings, Endianness : Big
Codec ID : A_AC3
Duration : 1h 31mn
Bit rate mode : Constant
Bit rate : 192 Kbps
Channel(s) : 2 channels
Channel positions : Front: L R
Sampling rate : 48.0 KHz
Bit depth : 16 bits
Compression mode : Lossy
Stream size : 125 MiB (1%)
Title : авторский - Леонид Володарский
Language : Russian
Default : No
Forced : No
Audio #7
ID : 8
Format : AC-3
Format/Info : Audio Coding 3
Mode extension : CM (complete main)
Format settings, Endianness : Big
Codec ID : A_AC3
Duration : 1h 31mn
Bit rate mode : Constant
Bit rate : 192 Kbps
Channel(s) : 2 channels
Channel positions : Front: L R
Sampling rate : 48.0 KHz
Bit depth : 16 bits
Compression mode : Lossy
Stream size : 125 MiB (1%)
Title : авторский - Василий Горчаков
Language : Russian
Default : No
Forced : No
Audio #8
ID : 9
Format : AC-3
Format/Info : Audio Coding 3
Mode extension : CM (complete main)
Format settings, Endianness : Big
Codec ID : A_AC3
Duration : 1h 31mn
Bit rate mode : Constant
Bit rate : 640 Kbps
Channel(s) : 6 channels
Channel positions : Front: L C R, Side: L R, LFE
Sampling rate : 48.0 KHz
Bit depth : 16 bits
Compression mode : Lossy
Stream size : 418 MiB (2%)
Title : English
Language : English
Default : No
Forced : No
Видеокодек: MPEG-4 AVC/H.264
Битрейт видео: 30.0 Mbps
Размер кадра: 1920 x 1080 (1.778)
Аудиокодек: AC3, 6ch, 2ch, 48.0 KHz-Аудио 1: 192 Kbps, 2ch - НТВ (Любовь Германова и Александр Рахленко)
Аудио 2: 640 Kbps, 6ch - Позитив
Аудио 3: 640 Kbps, 6ch - Киномания
Аудио 4: 640 Kbps, 6ch - CP Digital
Аудио 5: 640 Kbps, 6ch - Гаврилов
Аудио 6: 192 Kbps, 2ch - ВолодарскийГорчаков
Аудио 7: 192 Kbps, 2ch - Горчаков
Аудио 8: 640 Kbps, 6ch - АнглийскийСкриншоты:

Время раздачи: До пяти сидов . . .

[Цитировать]



Показать сообщения:    

Текущее время: 10-Дек 00:13

Часовой пояс: UTC + 3


Вы не можете начинать темы
Вы не можете отвечать на сообщения
Вы не можете редактировать свои сообщения
Вы не можете удалять свои сообщения
Вы не можете голосовать в опросах
Вы не можете прикреплять файлы к сообщениям
Вы не можете скачивать файлы

!ВНИМАНИЕ!
Сайт не предоставляет электронные версии произведений, а занимается лишь коллекционированием и каталогизацией ссылок, присылаемых и публикуемых на форуме нашими читателями. Если вы являетесь правообладателем какого-либо представленного материала и не желаете, чтобы ссылка на него находилась в нашем каталоге, свяжитесь с нами, и мы незамедлительно удалим ее. Файлы для обмена на трекере предоставлены пользователями сайта, и администрация не несет ответственности за их содержание. Просьба не заливать файлы, защищенные авторскими правами, а также файлы нелегального содержания!