[ Сегодня идет свободное скачивание без начисления Download ]


Статистика раздачи
Нет
 
   
 
Top  
 
 
-Шаг вперед 4 / Step Up Revolution (2012) BDRip-«Горячее не бывает»- Год выпуска: 2012
Страна: США
Производство: Offspring Entertainment, Summit Entertainment
Жанр: Драма, Мелодрама, Музыка
Режиссер: Скотт Спир
Продюсер: Эрик Фейг, Дженнифер Джибгот, Гаррет Грант
Актеры: Райан Гузман, Кэтрин МакКормик, Миша Гэбриел Хэмилтон, Клеопатра Коулмэн, Стивен Стэннерт, Томми Дьюи, Питер Галлахер, Майкл «Ксено» Лэнджбек, Клаудио Пинто, Николь Дабо ...
Перевод: Дублированный [лицензия]
Субтитры: Вшитые (отключаемые)
Язык субтитров: Русский, Английский-Описание фильма: Эмили, дочь влиятельного бизнесмена, приезжает в Майами с намерением стать профессиональной танцовщицей, но влюбляется в Шона — юношу, чья танцевальная труппа устраивает музыкальные флэшмобы. Команда, называющаяся MOB, участвует в конкурсе с внушительным денежным призом, а тем временем отец Эмили намеревается перестроить родной район ребят и переселить тысячи людей. Эмили присоединяется к танцорам и организует протестные мобы, рискуя не осуществить мечту, но сражаясь за нечто более важное.-[kp]576451[/kp] [imdb]tt1800741[/imdb]
Дата мировой премьеры: 26 июля 2012
Дата российской премьеры: 26 июля 2012, «West»
Дата выхода DVD релиза: 27 ноября 2012, «West Video»
Дата выхода Blu-Ray релиза: 27 ноября 2012, «West Video»-Продолжительность: 01:38:40
Качество видео: BDRip | Sample
Формат 3D: Half OverUnder / Вертикальная анаморфная стереопара
Порядок ракурсов: левый ракурс первый
Дополнительно: Сохранены оригинальные чаптеры как на Blu-ray-Видеокодек: MPEG-4 AVC/H.264
Битрейт видео: ~ 15,5 Мбит/сек
Размер кадра: 1920х1080
Аудио#1: AC3 5.1, 640 Кбит/сек - Русский [дублированный]
Аудио#2: AC3 5.1, 640 Кбит/сек - Украинский [дублированный]
Аудио#3: AC3 5.1, 640 Кбит/сек - Английский

MediaInfo:

Общее
Уникальный идентификатор : 214820657908500103707221058426065019927 (0xA19CF42A86A58655A0E319F70FC26417)
Полное имя : D:\торрент-раздачи\Step.Up.Revolution.3D.2012.BDRip1080p.2pass.mkv
Формат : Matroska
Версия формата : Version 2
Размер файла : 12,0 Гбайт
Продолжительность : 1 ч. 38 м.
Общий поток : 17,4 Мбит/сек
Название фильма : Step Up Revolution 3D (2012)
Дата кодирования : UTC 2012-11-29 19:01:27
Программа кодирования : mkvmerge v5.8.0 ('No Sleep / Pillow') built on Sep 2 2012 15:37:04
Библиотека кодирования : libebml v1.2.3 + libmatroska v1.3.0
Видео
Идентификатор : 1
Формат : AVC
Формат/Информация : Advanced Video Codec
Профиль формата : High@L4.1
Параметр CABAC формата : Да
Параметр ReFrames формата : 4 кадра
Идентификатор кодека : V_MPEG4/ISO/AVC
Продолжительность : 1 ч. 38 м.
Битрейт : 15,5 Мбит/сек
Ширина : 1920 пикселей
Высота : 1080 пикселей
Соотношение сторон : 16:9
Режим частоты кадров : Постоянный
Частота кадров : 23,976 кадра/сек
Цветовое пространство : YUV
Субдискретизация насыщенности : 4:2:0
Битовая глубина : 8 бит
Тип развёртки : Прогрессивная
Бит/(Пиксели*Кадры) : 0.312
Размер потока : 10,4 Гбайт (87%)
Заголовок : Step Up Revolution 3D (2012)
Библиотека кодирования : x264 core 128 r2216 198a7ea
Настройки программы : cabac=1 / ref=4 / deblock=1:-3:-3 / analyse=0x3:0x113 / me=umh / subme=9 / psy=1 / psy_rd=1.00:0.15 / mixed_ref=1 / me_range=16 / chroma_me=1 / trellis=2 / 8x8dct=1 / cqm=0 / deadzone=21,11 / fast_pskip=1 / chroma_qp_offset=-3 / threads=3 / lookahead_threads=1 / sliced_threads=0 / slices=4 / nr=0 / decimate=1 / interlaced=0 / bluray_compat=0 / constrained_intra=0 / bframes=6 / b_pyramid=2 / b_adapt=2 / b_bias=0 / direct=3 / weightb=1 / open_gop=0 / weightp=2 / keyint=240 / keyint_min=23 / scenecut=40 / intra_refresh=0 / rc_lookahead=60 / rc=2pass / mbtree=1 / bitrate=15500 / ratetol=1.0 / qcomp=0.65 / qpmin=0 / qpmax=69 / qpstep=4 / cplxblur=20.0 / qblur=0.5 / vbv_maxrate=40000 / vbv_bufsize=40000 / nal_hrd=none / frame-packing=4 / ip_ratio=1.40 / aq=1:0.70
Язык : English
Default : Да
Forced : Нет
Аудио #1
Идентификатор : 2
Формат : AC-3
Формат/Информация : Audio Coding 3
Расширение режима : CM (complete main)
Параметр Endianness формата : Big
Идентификатор кодека : A_AC3
Продолжительность : 1 ч. 38 м.
Вид битрейта : Постоянный
Битрейт : 640 Кбит/сек
Каналы : 6 каналов
Расположение каналов : Front: L C R, Side: L R, LFE
Частота : 48,0 КГц
Битовая глубина : 16 бит
Метод сжатия : С потерями
Размер потока : 452 Мбайт (4%)
Заголовок : AC3 / 5.1 ch / 640 kbps / Русский дубляж BD
Язык : Russian
Default : Да
Forced : Нет
Аудио #2
Идентификатор : 3
Формат : AC-3
Формат/Информация : Audio Coding 3
Расширение режима : CM (complete main)
Параметр Endianness формата : Big
Идентификатор кодека : A_AC3
Продолжительность : 1 ч. 38 м.
Вид битрейта : Постоянный
Битрейт : 640 Кбит/сек
Каналы : 6 каналов
Расположение каналов : Front: L C R, Side: L R, LFE
Частота : 48,0 КГц
Битовая глубина : 16 бит
Метод сжатия : С потерями
Размер потока : 452 Мбайт (4%)
Заголовок : AC3 / 5.1 ch / 640 kbps / Украинский дубляж BD
Язык : Ukrainian
Default : Нет
Forced : Нет
Аудио #3
Идентификатор : 4
Формат : AC-3
Формат/Информация : Audio Coding 3
Расширение режима : CM (complete main)
Параметр Endianness формата : Big
Идентификатор кодека : A_AC3
Продолжительность : 1 ч. 38 м.
Вид битрейта : Постоянный
Битрейт : 640 Кбит/сек
Каналы : 6 каналов
Расположение каналов : Front: L C R, Side: L R, LFE
Частота : 48,0 КГц
Битовая глубина : 16 бит
Метод сжатия : С потерями
Размер потока : 452 Мбайт (4%)
Заголовок : AC3 / 5.1 ch / 640 kbps / Original BD
Язык : English
Default : Нет
Forced : Нет
Текст #1
Идентификатор : 5
Формат : UTF-8
Идентификатор кодека : S_TEXT/UTF8
Идентификатор кодека/Информация : UTF-8 Plain Text
Заголовок : Full
Язык : Russian
Default : Нет
Forced : Нет
Текст #2
Идентификатор : 6
Формат : UTF-8
Идентификатор кодека : S_TEXT/UTF8
Идентификатор кодека/Информация : UTF-8 Plain Text
Заголовок : Full
Язык : English
Default : Нет
Forced : Нет
Меню
00:00:00.000 : :Chapter 01
00:05:37.170 : :Chapter 02
00:07:25.695 : :Chapter 03
00:11:47.623 : :Chapter 04
00:14:01.298 : :Chapter 05
00:16:55.514 : :Chapter 06
00:20:23.889 : :Chapter 07
00:23:17.604 : :Chapter 08
00:27:39.616 : :Chapter 09
00:32:32.283 : :Chapter 10
00:37:00.593 : :Chapter 11
00:39:51.764 : :Chapter 12
00:42:46.021 : :Chapter 13
00:45:52.833 : :Chapter 14
00:49:40.102 : :Chapter 15
00:56:39.020 : :Chapter 16
00:58:47.482 : :Chapter 17
01:02:50.850 : :Chapter 18
01:07:09.984 : :Chapter 19
01:11:56.687 : :Chapter 20
01:15:39.618 : :Chapter 21
01:17:27.476 : :Chapter 22
01:26:07.036 : :Chapter 23
01:31:37.700 : :Chapter 24

Чёрно-белые скриншоты в анаглифе для оценки качества 3Д:

Скриншоты:
Время раздачи: 24/7

[Цитировать]



Показать сообщения:    

Текущее время: 09-Дек 05:00

Часовой пояс: UTC + 3


Вы не можете начинать темы
Вы не можете отвечать на сообщения
Вы не можете редактировать свои сообщения
Вы не можете удалять свои сообщения
Вы не можете голосовать в опросах
Вы не можете прикреплять файлы к сообщениям
Вы не можете скачивать файлы

!ВНИМАНИЕ!
Сайт не предоставляет электронные версии произведений, а занимается лишь коллекционированием и каталогизацией ссылок, присылаемых и публикуемых на форуме нашими читателями. Если вы являетесь правообладателем какого-либо представленного материала и не желаете, чтобы ссылка на него находилась в нашем каталоге, свяжитесь с нами, и мы незамедлительно удалим ее. Файлы для обмена на трекере предоставлены пользователями сайта, и администрация не несет ответственности за их содержание. Просьба не заливать файлы, защищенные авторскими правами, а также файлы нелегального содержания!