[ Сегодня идет свободное скачивание без начисления Download ]


Статистика раздачи
Нет
 
   
 
Top  
 
 
-Футбол.Лига Чемпионов 2012-13 / Финал / Боруссия Д (Германия) — Бавария (Германия) / НТВ+ (25.05.2013) IPTVRip- Русское название: Лига Чемпионов 2012-13 / Финал / Боруссия Д (Германия) — Бавария (Германия) / НТВ+
Режиссер / Телекомпания: НТВ+
Год выпуска: 2013
Жанр: Спорт

Описание:

"В футбол играют 22 человека, а побеждают всегда немцы" - легендарные слова Гари Линекера как нельзя лучше подходят к субботнему финалу Лиги чемпионов. Как бы ни завершился этот финал, Кубок чемпионов уедет в Германию. Фаворитом в борьбе за Кубок является Мюнхен, но шансы Дортмунда вовсе не нулевые.
В этом сезоне "Бавария" выглядела куда предпочтительней "Боруссии". Чтобы в этом убедиться, достаточно посмотреть на турнирную таблицу чемпионата Германии. "Бавария" опередила "Боруссию" на 25 (!) очков (это притом, что "Боруссия" заняла второе место в чемпионате). Правда, в очных встречах в рамках бундеслиги "Бавария" выиграть не смогла - оба матча завершились со счетом 1:1.
В Лиге чемпионов "Бавария" тоже смотрелась более убедительно. "Боруссия" провела отличнейший еврокубковый сезон, несколько раз обыграла "Реал" - но все достижения всех остальных клубов меркнут на фоне того, с какой уверенностью неслась к финалу "Бавария". Так утюг проходит по смятой простыне, не оставляя за собой ни одной складки - "Бавария" отутюжила и "Арсенал", и "Барселону". В общем, если судить по результатам нынешнего сезона, то "Боруссия" зря потратилась на перелет в Лондон. Делать ей там нечего.
Но статистика на поле не выйдет. А один отдельно взятый матч, как это ни банально звучит, "Боруссия" у "Баварии" может выиграть. И мюнхенцы, как никто, знают, как можно проиграть финал, в котором преимущество было на твоей стороне. Они были очень близки к победе год назад, они почти выиграли в 1999 году, но в конечном итоге эти два кубка оказались в совсем других коллекциях. И, как бы там ни было, "Боруссия" достаточно хорошо играет в футбол, чтобы субботним вечером нам было гарантировано шикарное зрелище.
Главной новостью перед финалом стало известие о том, что Марио Гетце не сможет выйти на поле. Он так и не залечил травму бедра. Сказать, что это существенная потеря, - ничего не сказать. В "Боруссии" хватает высококлассных игроков, но Гетце - ее мозг и сердце сразу. И неслучайно "Бавария" уже выложила за этого игрока 37 миллионов евро (настаивал на приобретении Гетце Хосеп Гвардиола).

Продолжительность: 02:23:51
Язык Комментария: Русский (Одноголосый)
Комментарий: Андронов

MI

Общее
Формат : AVI
Формат/Информация : Audio Video Interleave
Размер файла : 1,86 Гбайт
Продолжительность : 2 ч. 23 м.
Общий поток : 1848 Кбит/сек
Программа кодирования : MEncoder SVN-r33883(20110719-gcc4.5.2)
Библиотека кодирования : VirtualDub build 32817/release
Видео
Идентификатор : 0
Формат : MPEG-4 Visual
Профиль формата : Advanced [email protected]
Параметр BVOP формата : 2
Параметр QPel формата : Нет
Параметр GMC формата : Без точки перехода
Параметр матрицы формата : Default (H.263)
Идентификатор кодека : XVID
Идентификатор кодека/Подсказка : XviD
Продолжительность : 2 ч. 23 м.
Битрейт : 1710 Кбит/сек
Ширина : 704 пикселя
Высота : 400 пикселей
Соотношение сторон : 16:9
Частота кадров : 25,000 кадров/сек
Цветовое пространство : YUV
Субдискретизация насыщенности : 4:2:0
Битовая глубина : 8 бит
Тип развёртки : Прогрессивная
Метод сжатия : С потерями
Бит/(Пиксели*Кадры) : 0.243
Размер потока : 1,72 Гбайт (93%)
Библиотека кодирования : XviD 1.2.1 (UTC 2008-12-04)
Аудио
Идентификатор : 1
Формат : MPEG Audio
Версия формата : Version 1
Профиль формата : Layer 3
Режим : Joint stereo
Расширение режима : MS Stereo
Идентификатор кодека : 55
Идентификатор кодека/Подсказка : MP3
Продолжительность : 2 ч. 23 м.
Вид битрейта : Постоянный
Битрейт : 128 Кбит/сек
Каналы : 2 канала
Частота : 48,0 КГц
Метод сжатия : С потерями
Размер потока : 132 Мбайт (7%)
Выравнивание : Разделение по промежуткам
Продолжительность промежутка : 40 мс. (1,00 видеокадр)
Время предзагрузки промежутка : 500 мс.
Библиотека кодирования : LAME3.98.4

Видеокодек: XviD
Битрейт видео: 1710 Кбит/сек
Размер кадра: 704х400
Качество видео: IPTVRip
Аудиокодек: MP3
Битрейт аудио: 128 Kbps, 48 KHz, 2 канала

Скриншоты: Время раздачи: 24/7

[Цитировать]



Показать сообщения:    

Текущее время: 04-Дек 17:14

Часовой пояс: UTC + 3


Вы не можете начинать темы
Вы не можете отвечать на сообщения
Вы не можете редактировать свои сообщения
Вы не можете удалять свои сообщения
Вы не можете голосовать в опросах
Вы не можете прикреплять файлы к сообщениям
Вы не можете скачивать файлы

!ВНИМАНИЕ!
Сайт не предоставляет электронные версии произведений, а занимается лишь коллекционированием и каталогизацией ссылок, присылаемых и публикуемых на форуме нашими читателями. Если вы являетесь правообладателем какого-либо представленного материала и не желаете, чтобы ссылка на него находилась в нашем каталоге, свяжитесь с нами, и мы незамедлительно удалим ее. Файлы для обмена на трекере предоставлены пользователями сайта, и администрация не несет ответственности за их содержание. Просьба не заливать файлы, защищенные авторскими правами, а также файлы нелегального содержания!