[ Сегодня идет свободное скачивание без начисления Download ]


Статистика раздачи
Нет
 
   
 
Top  
 
 
-Умопомрачительные фантазии Чарли Свона-третьего / A Glimpse Inside the Mind of Charles Swan III (2012) HDRip- Русское название: Умопомрачительные фантазии Чарли Свона-третьего
Оригинальное название: A Glimpse Inside the Mind of Charles Swan III
Год выпуска: 2012
Производство: США / A24, American Zoetrope, The Directors Bureau
Жанр: Комедия
Перевод: Дублированный [лицензия]-Дата мировой премьеры: 15 ноября 2012
Дата российской премьеры: 14 марта 2013, «Кино без границ»
Дата выхода DVD релиза: 20 мая 2013, «Новый Диск»-Режиссер: Роман Коппола
Продюсер: Роман Коппола, Юри Хенли, Сью Ен Ан
Актеры: Чарли Шин, Джейсон Шварцман, Билл Мюррэй, Кэтрин Уинник, Патриция Аркетт, Обри Плаза, Дермот Малруни, Мэри Элизабет Уинстэд-Описание фильма:
Чарли Свон-третий — сибарит и ловелас. У него собственное креативное агентство и известные друзья, а жизнь его легка и беззаботна. И главное — Чарли встретил, наконец, любовь всей своей жизни — прекрасную Ивону…
Но идиллия длилась недолго: Ивона находит в шкафу богатую коллекцию фотографий прошлых подружек Чарли и, не желая когда-то стать одной из них, уходит. Сердце Чарли Свона-третьего разбито. Спасением становятся эксцентричные фантасмагории, где он во всевозможных невероятных обстоятельствах снова сражается за свою возлюбленную. Сможет ли он вернуть прекрасную Ивону не только в своих умопомрачительных фантазиях, но и в реальной жизни?- -Продолжительность: 01:25:49
Качество видео: HDRip-Видеокодек: Xvid
Битрейт видео: ~1822 Кбит/с
Размер кадра: 720x384
Аудиокодек: AC3 5.1
Битрейт аудио: 448 Кбит/с

MediaInfo

Общее
Полное имя : D:\Торрент раздача\Umopomrachitelnye.fantazii.Charli.Svona.2012.D.HDRip.avi
Формат : AVI
Формат/Информация : Audio Video Interleave
Размер файла : 1,37 Гбайт
Продолжительность : 1 ч. 25 м.
Общий поток : 2280 Кбит/сек
Название фильма : Umopomrachitelnye.fantazii.Charli.Svona.2012.D.HDRip
Жанр : Comedy
Программа кодирования : VirtualDubMod 1.5.10.2 (build 2540/release)
Формат оригинала/Имя : Movie
Видео
Идентификатор : 0
Формат : MPEG-4 Visual
Профиль формата : Advanced Simple@L5
Параметр BVOP формата : 1
Параметр QPel формата : Нет
Параметр GMC формата : Без точки перехода
Параметр матрицы формата : Выборочная
Идентификатор кодека : XVID
Идентификатор кодека/Подсказка : XviD
Продолжительность : 1 ч. 25 м.
Битрейт : 1823 Кбит/сек
Ширина : 720 пикселей
Высота : 384 пикселя
Соотношение сторон : 1,85:1
Частота кадров : 23,976 кадра/сек
Цветовое пространство : YUV
Субдискретизация насыщенности : 4:2:0
Битовая глубина : 8 бит
Тип развёртки : Прогрессивная
Метод сжатия : С потерями
Бит/(Пиксели*Кадры) : 0.275
Размер потока : 1,09 Гбайт (80%)
Библиотека кодирования : XviD 1.2.1 (UTC 2008-12-04)
Аудио
Идентификатор : 1
Формат : AC-3
Формат/Информация : Audio Coding 3
Расширение режима : CM (complete main)
Параметр Endianness формата : Big
Идентификатор кодека : 2000
Продолжительность : 1 ч. 25 м.
Вид битрейта : Постоянный
Битрейт : 448 Кбит/сек
Каналы : 6 каналов
Расположение каналов : Front: L C R, Side: L R, LFE
Частота : 48,0 КГц
Битовая глубина : 16 бит
Метод сжатия : С потерями
Размер потока : 275 Мбайт (20%)
Выравнивание : Разделение по промежуткам
Продолжительность промежутка : 42 мс. (1,00 видеокадр)
Время предзагрузки промежутка : 500 мс.
Скриншоты:
Время раздачи: 24/7

[Цитировать]

Топик был перенесен из форума Новинки кинопроката в форум Комедия
Henkok



Показать сообщения:    

Текущее время: 11-Дек 16:56

Часовой пояс: UTC + 3


Вы не можете начинать темы
Вы не можете отвечать на сообщения
Вы не можете редактировать свои сообщения
Вы не можете удалять свои сообщения
Вы не можете голосовать в опросах
Вы не можете прикреплять файлы к сообщениям
Вы не можете скачивать файлы

!ВНИМАНИЕ!
Сайт не предоставляет электронные версии произведений, а занимается лишь коллекционированием и каталогизацией ссылок, присылаемых и публикуемых на форуме нашими читателями. Если вы являетесь правообладателем какого-либо представленного материала и не желаете, чтобы ссылка на него находилась в нашем каталоге, свяжитесь с нами, и мы незамедлительно удалим ее. Файлы для обмена на трекере предоставлены пользователями сайта, и администрация не несет ответственности за их содержание. Просьба не заливать файлы, защищенные авторскими правами, а также файлы нелегального содержания!