[ Сегодня идет свободное скачивание без начисления Download ]


Статистика раздачи
Нет
 
   
 
Top  
 
 
-Крепкий орешек: Хороший день, чтобы умереть / A Good Day to Die Hard (2013) HDRip-«Яблоко от яблони»- Русское название: Крепкий орешек: Хороший день, чтобы умереть
Оригинальное название: A Good Day to Die Hard
Год выпуска: 2013
Производство: США / Twentieth Century Fox Film Corporation, TSG Entertainment, Giant Pictures
Жанр: Боевик, Криминал, Триллер
Перевод: Дублированный (iTunes Russia)
Субтитры: Отсутствуют-Дата мировой премьеры: 7 февраля 2013
Дата российской премьеры: 14 февраля 2013, «Двадцатый Век Фокс СНГ»
Дата выхода DVD релиза: 6 июня 2013, «Двадцатый Век Фокс СНГ»
Дата выхода Blu-Ray релиза: 6 июня 2013, «Двадцатый Век Фокс СНГ»-Режиссер: Джон Мур
Продюсер: Вик Годфри, Алекс Янг, Стивен Дж. Идс
Актеры: Брюс Уиллис, Джай Кортни, Себастьян Кох, Юлия Снигирь, Радивойе Буквич, Сергей Колесников, Мэри Элизабет Уинстэд, Коул Хаузер, Амори Ноласко, Роман Лукнар-Описание фильма:
Джон МакКлейн прибывает в Москву, чтобы вызволить из тюрьмы своего непредсказуемого сына, но холодная голова и железные мускулы вязнут в паутине российской действительности. Дело, в которое влип МакКлейн-младший, оказывается настолько «опасной трясиной», что отцу и сыну, чтобы выжить и в очередной раз спасти мир, приходится объединить свои усилия, забыв прежние, казалось бы, непреодолимые разногласия.- p -Продолжительность: 01:38:11
Качество видео: HDRip-Видеокодек: MPEG-4 AVC/H.264
Битрейт видео: ~1679 Кбит/сек
Размер кадра: 958x518
Аудиокодек: AC3 5.1
Битрейт аудио: 384 Кбит/сек

MediaInfo

Общее
Уникальный идентификатор : 235631322785801461897108249340000147689 (0xB144F12975AF70D3A88CC545966518E9)
Полное имя : D:\Торрент раздача\Krepkiy.Oreshek.Xoroshiy.Den.Chtobi.Umeret.2013.HDRip.mkv
Формат : Matroska
Версия формата : Version 2
Размер файла : 1,41 Гбайт
Продолжительность : 1 ч. 38 м.
Общий поток : 2061 Кбит/сек
Название фильма : Крепкий орешек: Хороший день, чтобы умереть / A Good Day to Die Hard [2013 г.]
Дата кодирования : UTC 2013-05-23 10:02:32
Программа кодирования : mkvmerge v3.2.0 ('Beginnings') built on Feb 12 2010 16:46:17
Библиотека кодирования : libebml v0.7.9 + libmatroska v0.8.1
Видео
Идентификатор : 1
Формат : AVC
Формат/Информация : Advanced Video Codec
Профиль формата : High@L4.1
Параметр CABAC формата : Да
Параметр ReFrames формата : 10 кадров
Идентификатор кодека : V_MPEG4/ISO/AVC
Продолжительность : 1 ч. 38 м.
Битрейт : 1679 Кбит/сек
Ширина : 958 пикселей
Высота : 518 пикселей
Соотношение сторон : 1,85:1
Режим частоты кадров : Постоянный
Частота кадров : 23,976 кадра/сек
Цветовое пространство : YUV
Субдискретизация насыщенности : 4:2:0
Битовая глубина : 8 бит
Тип развёртки : Прогрессивная
Бит/(Пиксели*Кадры) : 0.141
Размер потока : 1,12 Гбайт (79%)
Библиотека кодирования : x264 core 130 r2273 b3065e6
Настройки программы : cabac=1 / ref=10 / deblock=1:-2:-1 / analyse=0x3:0x133 / me=umh / subme=10 / psy=1 / psy_rd=0.95:0.05 / mixed_ref=1 / me_range=32 / chroma_me=1 / trellis=2 / 8x8dct=1 / cqm=0 / deadzone=21,11 / fast_pskip=0 / chroma_qp_offset=-4 / threads=6 / lookahead_threads=1 / sliced_threads=0 / nr=0 / decimate=1 / interlaced=0 / bluray_compat=0 / constrained_intra=0 / bframes=9 / b_pyramid=2 / b_adapt=2 / b_bias=0 / direct=3 / weightb=1 / open_gop=0 / weightp=2 / keyint=230 / keyint_min=21 / scenecut=40 / intra_refresh=0 / rc_lookahead=0 / rc=2pass / mbtree=0 / bitrate=1679 / ratetol=1.0 / qcomp=0.70 / qpmin=0 / qpmax=69 / qpstep=4 / cplxblur=20.0 / qblur=0.5 / vbv_maxrate=50000 / vbv_bufsize=62500 / nal_hrd=none / ip_ratio=1.35 / pb_ratio=1.25 / aq=2:0.90
Язык : English
Default : Нет
Forced : Нет
Аудио
Идентификатор : 2
Формат : AC-3
Формат/Информация : Audio Coding 3
Расширение режима : CM (complete main)
Параметр Endianness формата : Big
Идентификатор кодека : A_AC3
Продолжительность : 1 ч. 38 м.
Вид битрейта : Постоянный
Битрейт : 384 Кбит/сек
Каналы : 6 каналов
Расположение каналов : Front: L C R, Side: L R, LFE
Частота : 48,0 КГц
Битовая глубина : 16 бит
Метод сжатия : С потерями
Размер потока : 270 Мбайт (19%)
Заголовок : Лицензия, iTunes
Язык : Russian
Default : Да
Forced : Нет
Меню
00:00:00.000 : en:Chapter 1
00:02:52.000 : en:Chapter 2
00:05:02.000 : en:Chapter 3
00:09:50.000 : en:Chapter 4
00:12:28.000 : en:Chapter 5
00:15:41.000 : en:Chapter 6
00:18:18.000 : en:Chapter 7
00:21:45.000 : en:Chapter 8
00:26:57.000 : en:Chapter 9
00:30:57.000 : en:Chapter 10
00:34:33.000 : en:Chapter 11
00:38:21.000 : en:Chapter 12
00:40:28.000 : en:Chapter 13
00:44:12.000 : en:Chapter 14
00:48:23.000 : en:Chapter 15
00:51:13.000 : en:Chapter 16
00:54:42.000 : en:Chapter 17
00:59:23.000 : en:Chapter 18
01:01:22.000 : en:Chapter 19
01:06:19.000 : en:Chapter 20
01:09:42.000 : en:Chapter 21
01:14:16.000 : en:Chapter 22
01:15:42.000 : en:Chapter 23
01:19:29.000 : en:Chapter 24
01:21:39.000 : en:Chapter 25
01:23:27.000 : en:Chapter 26
01:27:59.000 : en:Chapter 27
01:31:54.000 : en:Chapter 28
Скриншоты:
Время раздачи: 24/7 по возможности

[Цитировать]

Топик был перенесен из форума Новинки кинопроката в форум Боевик
Henkok



Показать сообщения:    

Текущее время: 08-Дек 08:59

Часовой пояс: UTC + 3


Вы не можете начинать темы
Вы не можете отвечать на сообщения
Вы не можете редактировать свои сообщения
Вы не можете удалять свои сообщения
Вы не можете голосовать в опросах
Вы не можете прикреплять файлы к сообщениям
Вы не можете скачивать файлы

!ВНИМАНИЕ!
Сайт не предоставляет электронные версии произведений, а занимается лишь коллекционированием и каталогизацией ссылок, присылаемых и публикуемых на форуме нашими читателями. Если вы являетесь правообладателем какого-либо представленного материала и не желаете, чтобы ссылка на него находилась в нашем каталоге, свяжитесь с нами, и мы незамедлительно удалим ее. Файлы для обмена на трекере предоставлены пользователями сайта, и администрация не несет ответственности за их содержание. Просьба не заливать файлы, защищенные авторскими правами, а также файлы нелегального содержания!