[ Сегодня идет свободное скачивание без начисления Download ]


Статистика раздачи
Нет
 
   
 
Top  
 
 
-Оз: Великий и Ужасный / Oz the Great and Powerful (2013) HDRip- Русское название: Оз: Великий и Ужасный
Оригинальное название: Oz the Great and Powerful
Год выпуска: 2013
Производство: США / Roth Films, Walt Disney Pictures
Жанр: Фэнтези, Приключения, Комедия
Перевод: Дублированный [чистый звук]
Субтитры: Отсутствуют
Дата мировой премьеры: 14 февраля 2013
Дата российской премьеры: 7 марта 2013, «WDSSPR»
Дата выхода DVD релиза: 6 августа 2013, «Уолт Дисней Компани СНГ»
Режиссер: Сэм Рэйми
Продюсер: Джо Рот, Дэбби Босси, Грант Кертис
Актеры: Джеймс Франко, Мила Кунис, Рейчел Вайс, Мишель Уильямс, Зак Брафф, Билл Коббс, Джои Кинг, Тони Кокс, Стивен Р. Харт, Эбигейл Спенсер..
Описание фильма:
Когда ураган забрасывает циркового фокусника Оскара Диггса из пыльного Канзаса в волшебную страну Оз, склонный к мошенничеству циркач полагает, что он поймал удачу за хвост — ведь с помощью своих трюков он с легкостью может добыть в новых землях и славу и богатство.
В ситуации выбора между Добром и Злом, Оскару Диггсу предстоит не только стать Великим и Ужасным Волшебником из Страны Оз, но и немного измениться к лучшему.

Продолжительность: 02:10:29
Качество видео: HDRip [Рип с BDRip 720p]
Видеокодек: Xvid
Битрейт видео: ~1652 Kbps 23.98 fps
Размер кадра: 720x304
Аудиокодек: AC3
Битрейт аудио#1: 448 Kbps 48000 Hz (6 ch) (Русский)
Битрейт аудио#2: 128 Kbps 48000 Hz (stereo) (Английский)
Сэмпл: Скачать

MediaInfo:

Общее
Полное имя                               : Oz.velikij.i.ujasniy.2013.D.HDRip.2100MB.nnm-club.avi
Формат                                   : AVI
Формат/Информация                        : Audio Video Interleave
Размер файла                             : 2,04 Гбайт
Продолжительность                        : 2 ч. 10 м.
Общий поток                              : 2242 Кбит/сек
Программа кодирования                    : VirtualDubMod 1.5.10.2 (build 2540/release)
Библиотека кодирования                   : VirtualDubMod build 2540/release
Видео
Идентификатор                            : 0
Формат                                   : MPEG-4 Visual
Профиль формата                          : Advanced Simple@L5
Параметр BVOP формата                    : 2
Параметр QPel формата                    : Нет
Параметр GMC формата                     : Без точки перехода
Параметр матрицы формата                 : Default (MPEG)
Идентификатор кодека                     : XVID
Идентификатор кодека/Подсказка           : XviD
Продолжительность                        : 2 ч. 10 м.
Битрейт                                  : 1652 Кбит/сек
Ширина                                   : 720 пикселей
Высота                                   : 304 пикселя
Соотношение сторон                       : 2,35:1
Частота кадров                           : 23,976 кадра/сек
Цветовое пространство                    : YUV
Субдискретизация насыщенности            : 4:2:0
Битовая глубина                          : 8 бит
Тип развёртки                            : Прогрессивная
Метод сжатия                             : С потерями
Бит/(Пиксели*Кадры)                      : 0.315
Размер потока                            : 1,51 Гбайт (74%)
Библиотека кодирования                   : XviD 1.2.1 (UTC 2008-12-04)
Аудио #1
Идентификатор                            : 1
Формат                                   : AC-3
Формат/Информация                        : Audio Coding 3
Расширение режима                        : CM (complete main)
Параметр Endianness формата              : Big
Идентификатор кодека                     : 2000
Продолжительность                        : 2 ч. 10 м.
Вид битрейта                             : Постоянный
Битрейт                                  : 448 Кбит/сек
Каналы                                   : 6 каналов
Расположение каналов                     : Front: L C R, Side: L R, LFE
Частота                                  : 48,0 КГц
Битовая глубина                          : 16 бит
Метод сжатия                             : С потерями
Размер потока                            : 418 Мбайт (20%)
Выравнивание                             : Разделение по промежуткам
Продолжительность промежутка             : 42  мс. (1,00 видеокадр)
Время предзагрузки промежутка            : 500  мс.
Аудио #2
Идентификатор                            : 2
Формат                                   : AC-3
Формат/Информация                        : Audio Coding 3
Расширение режима                        : CM (complete main)
Параметр Endianness формата              : Big
Идентификатор кодека                     : 2000
Продолжительность                        : 2 ч. 10 м.
Вид битрейта                             : Постоянный
Битрейт                                  : 128 Кбит/сек
Каналы                                   : 2 канала
Расположение каналов                     : Front: L R
Частота                                  : 48,0 КГц
Битовая глубина                          : 16 бит
Метод сжатия                             : С потерями
Размер потока                            : 119 Мбайт (6%)
Выравнивание                             : Разделение по промежуткам
Продолжительность промежутка             : 42  мс. (1,00 видеокадр)
Время предзагрузки промежутка            : 500  мс.
Скриншоты:
Время раздачи: 24/7 (до 10 скачавших)

[Цитировать]

Топик был перенесен из форума Новинки кинопроката в форум Фэнтези
Henkok



Показать сообщения:    

Текущее время: 07-Дек 11:44

Часовой пояс: UTC + 3


Вы не можете начинать темы
Вы не можете отвечать на сообщения
Вы не можете редактировать свои сообщения
Вы не можете удалять свои сообщения
Вы не можете голосовать в опросах
Вы не можете прикреплять файлы к сообщениям
Вы не можете скачивать файлы

!ВНИМАНИЕ!
Сайт не предоставляет электронные версии произведений, а занимается лишь коллекционированием и каталогизацией ссылок, присылаемых и публикуемых на форуме нашими читателями. Если вы являетесь правообладателем какого-либо представленного материала и не желаете, чтобы ссылка на него находилась в нашем каталоге, свяжитесь с нами, и мы незамедлительно удалим ее. Файлы для обмена на трекере предоставлены пользователями сайта, и администрация не несет ответственности за их содержание. Просьба не заливать файлы, защищенные авторскими правами, а также файлы нелегального содержания!