[ Сегодня идет свободное скачивание без начисления Download ]


Статистика раздачи
Нет
 
   
 
Top  
 
 
-Любовь – это всё, что тебе нужно / Den skaldede frisor (2012) BDRip [H.264]- Русское название: Любовь – это всё, что тебе нужно
Оригинальное название: Den skaldede fris?r
Год выпуска: 2012
Производство: Дания, Швеция, Италия, Франция, Германия / Zentropa, Film i V?st, Lumi?re & Company, Teodora Film, Slot Machine, Liberator Productions, ARTE, Network Movie Film-und Fernsehproduktion, ZDF
Жанр: Мелодрама, Комедия
Перевод: Дублированный
Возраст: 16+ |зрителям, достигшим 16 лет|
Дата мировой премьеры: 2 сентября 2012
Дата российской премьеры: 7 марта 2013
Дата выхода DVD релиза: 9 апреля 2013
Дата выхода Blu-Ray релиза: 9 апреля 2013
Режиссер: Сюзанна Бир
Продюсер: Сиссе Граум Олсен, Вибеке Винделов, Карен Бентзон
Актеры: Трине Дюрхольм, Пирс Броснан, Паприка Стеэн, Ким Бодниа, Кристиан Шамбург-Мюллер, Себастьян Йессен, Молли Бликст Эгелинд, Стина Экблад, Бодиль Ёргенсон, Мики Скил Хансен, Лине Крусе, Рикке Луиз Андерссон, Бирте Нойманн, Фредерикке Томассен, Филип Санден, Чиро Петроне, Томас Восс, Мария Хелена Гуггенхейм, Марко Д’Амор, Мария Стенц, Кристиана Рохд, Томас Джессинг, Уильям Саликат, Анне О. Паг, Симона Нилсен, Себастьян Ланд
Описание фильма:
Филипп — одинокий вдовец и фанат своей работы. Он владеет большой фирмой по выращиванию и продаже овощей. В его жизни нет ничего, кроме бизнеса, и вот однажды сын объявляет ему, что женится на девушке из Швеции, и просит у Филиппа разрешения устроить свадьбу на его вилле в Соренто. Филипп отправляется в Италию, где он, наконец-то, поймет, что кроме работы в жизни есть еще и любовь: с множеством поворотов и приключений!
Релиз от:

Продолжительность: 01:55:56
Качество видео: BDRip
Видеокодек: MPEG-4 AVC/H.264
Битрейт видео: ~2650 Кбит/сек
Размер кадра: 1024x436
Аудиокодек: MP3
Аудио #1: Русский (AC3, 6 ch, 448 Кбит/с) | Дублированный
Аудио #2: Датский (AC3, 6 ch, 448 Кбит/с)

MediaInfo:

Общее
Уникальный идентификатор : 207487150449542137154432370715244922885 (0x9C18925534A679FC8F1FFCFC093C8805)
Полное имя : Lubov.eto.vse.chto.tebe.nuzhno.2012.x264.BDRip.mkv
Формат : Matroska
Версия формата : Version 4 / Version 2
Размер файла : 2,87 Гбайт
Продолжительность : 1 ч. 56 м.
Общий поток : 3542 Кбит/сек
Дата кодирования : UTC 2013-05-24 20:22:15
Программа кодирования : mkvmerge v6.1.0 ('Old Devil') built on Mar 2 2013 14:32:37
Библиотека кодирования : libebml v1.3.0 + libmatroska v1.4.0
Видео
Идентификатор : 1
Формат : AVC
Формат/Информация : Advanced Video Codec
Профиль формата : High@L4.1
Параметр CABAC формата : Да
Параметр ReFrames формата : 9 кадров
Идентификатор кодека : V_MPEG4/ISO/AVC
Продолжительность : 1 ч. 56 м.
Битрейт : 2650 Кбит/сек
Ширина : 1024 пикселя
Высота : 436 пикселей
Соотношение сторон : 2,35:1
Режим частоты кадров : Постоянный
Частота кадров : 23,976 кадра/сек
Цветовое пространство : YUV
Субдискретизация насыщенности : 4:2:0
Битовая глубина : 8 бит
Тип развёртки : Прогрессивная
Бит/(Пиксели*Кадры) : 0.248
Размер потока : 2,09 Гбайт (73%)
Библиотека кодирования : x264 core 130 r2273 b3065e6
Настройки программы : cabac=1 / ref=9 / deblock=1:-3:-3 / analyse=0x3:0x133 / me=umh / subme=11 / psy=1 / psy_rd=1.00:0.20 / mixed_ref=1 / me_range=48 / chroma_me=1 / trellis=2 / 8x8dct=1 / cqm=0 / deadzone=21,11 / fast_pskip=0 / chroma_qp_offset=-3 / threads=6 / lookahead_threads=1 / sliced_threads=0 / nr=0 / decimate=0 / interlaced=0 / bluray_compat=0 / constrained_intra=0 / bframes=7 / b_pyramid=2 / b_adapt=2 / b_bias=0 / direct=3 / weightb=1 / open_gop=0 / weightp=2 / keyint=240 / keyint_min=23 / scenecut=40 / intra_refresh=0 / rc=2pass / mbtree=0 / bitrate=2650 / ratetol=1.0 / qcomp=0.60 / qpmin=0 / qpmax=69 / qpstep=4 / cplxblur=20.0 / qblur=0.5 / ip_ratio=1.40 / pb_ratio=1.30 / aq=1:1.00
Язык : Danish
Default : Да
Forced : Нет
Аудио #1
Идентификатор : 2
Формат : AC-3
Формат/Информация : Audio Coding 3
Расширение режима : CM (complete main)
Параметр Endianness формата : Big
Идентификатор кодека : A_AC3
Продолжительность : 1 ч. 56 м.
Вид битрейта : Постоянный
Битрейт : 448 Кбит/сек
Каналы : 6 каналов
Расположение каналов : Front: L C R, Side: L R, LFE
Частота : 48,0 КГц
Битовая глубина : 16 бит
Метод сжатия : С потерями
Размер потока : 372 Мбайт (13%)
Язык : Russian
Default : Да
Forced : Нет
Аудио #2
Идентификатор : 3
Формат : AC-3
Формат/Информация : Audio Coding 3
Расширение режима : CM (complete main)
Параметр Endianness формата : Big
Идентификатор кодека : A_AC3
Продолжительность : 1 ч. 56 м.
Вид битрейта : Постоянный
Битрейт : 448 Кбит/сек
Каналы : 6 каналов
Расположение каналов : Front: L C R, Side: L R, LFE
Частота : 48,0 КГц
Битовая глубина : 16 бит
Метод сжатия : С потерями
Размер потока : 372 Мбайт (13%)
Язык : Danish
Default : Нет
Forced : Нет
Меню
00:00:00.000 : :Chapter 01
00:10:15.030 : :Chapter 02
00:20:38.653 : :Chapter 03
00:31:52.743 : :Chapter 04
00:39:58.353 : :Chapter 05
00:51:54.777 : :Chapter 06
01:00:48.603 : :Chapter 07
01:14:25.542 : :Chapter 08
01:22:09.131 : :Chapter 09
01:31:13.466 : :Chapter 10
01:45:22.942 : :Chapter 11

Рейтинг MPAA:

Рейтинг R - Детям до 17 лет обязательно присутствие родителей

Рейтинг R получают фильмы, в содержании которых обязательно содержится материал, предназначенный только для взрослой аудитории. Родителям рекомендуется хорошо подумать, прежде чем посмотреть такой фильм вместе со своими детьми.
Фильм, получивший рейтинг R, скорее всего содержит сексуальные сцены, эпизоды с употреблением наркотиков, нецензурную брань, фрагменты с насилием и т.д.

Дополнительная информация:

Оригинальное название фильма переводится как «Лысый парикмахер».
Скриншоты:

[Цитировать]

Топик был перенесен из форума Новинки кинопроката в форум Мелодрама
Henkok



Показать сообщения:    

Текущее время: 08-Дек 07:07

Часовой пояс: UTC + 3


Вы не можете начинать темы
Вы не можете отвечать на сообщения
Вы не можете редактировать свои сообщения
Вы не можете удалять свои сообщения
Вы не можете голосовать в опросах
Вы не можете прикреплять файлы к сообщениям
Вы не можете скачивать файлы

!ВНИМАНИЕ!
Сайт не предоставляет электронные версии произведений, а занимается лишь коллекционированием и каталогизацией ссылок, присылаемых и публикуемых на форуме нашими читателями. Если вы являетесь правообладателем какого-либо представленного материала и не желаете, чтобы ссылка на него находилась в нашем каталоге, свяжитесь с нами, и мы незамедлительно удалим ее. Файлы для обмена на трекере предоставлены пользователями сайта, и администрация не несет ответственности за их содержание. Просьба не заливать файлы, защищенные авторскими правами, а также файлы нелегального содержания!