[ Сегодня идет свободное скачивание без начисления Download ]


Статистика раздачи
Нет
 
   
 
Top  
 
 
-Discovery. Гигантские чудовища: Тиранозавр глубин / Mega Beasts: T-Rex Of The Deep (2009) HDTVRip [H.264/720p-LQ]- Русское название: Discovery. Гигантские чудовища: Тиранозавр глубин
Оригинальное название: Mega Beasts: T-Rex Of The Deep
Страна: США
Режиссер / Телекомпания: Джон Джосеф / Discovery
Год выпуска: 2009
Жанр: Документальный, научно-популярный, доисторический мир
Описание: Мозазавр - доисторическое чудовище, обладавшее двух метровыми челюстями с дополнительным рядом зубов и отвратительным характером - любил обедать гигантскими акулами и плезиозаврами.
Продолжительность: 00:43:29
Перевод: Одноголосый закадровый (профессиональный)
Видеокодек: MPEG-4 AVC/H.264
Битрейт видео: ~ 3 812 Кбит/с
Размер кадра: 1280 x 720
Качество видео: HDTVRip [720p-LQ]
Аудио:
1. [русский] AC3, 6 ch, 224 Кбит/с
2. [english] AC3, 6 ch, 384 Кбит/с

MediaInfo

Общее
Уникальный идентификатор : 242927324606048100016254569707748602250 (0xB6C219D310FB0F4C9853D5DCB5AE318A)
Полное имя : A:\Релизы\Discovery.MegaBeasts.T-Rex.Of.The.Deep.BDRip.720p.mkv
Формат : Matroska
Версия формата : Version 1
Размер файла : 1,39 Гбайт
Продолжительность : 44 м.
Общий поток : 4510 Кбит/сек
Дата кодирования : UTC 2010-12-09 08:21:07
Программа кодирования : mkvmerge v2.5.3 ('Boogie') built on Mar 7 2009 15:00:41
Библиотека кодирования : libebml v0.7.7 + libmatroska v0.8.1
Видео
Идентификатор : 1
Формат : AVC
Формат/Информация : Advanced Video Codec
Профиль формата : High@L3.1
Параметр CABAC формата : Да
Параметр ReFrames формата : 4 кадра
Идентификатор кодека : V_MPEG4/ISO/AVC
Продолжительность : 44 м.
Битрейт : 3812 Кбит/сек
Ширина : 1280 пикселей
Высота : 720 пикселей
Соотношение сторон : 16:9
Частота кадров : 25,000 кадров/сек
Цветовое пространство : YUV
Субдискретизация насыщенности : 4:2:0
Битовая глубина : 8 бит
Тип развёртки : Прогрессивная
Бит/(Пиксели*Кадры) : 0.165
Размер потока : 1,17 Гбайт (85%)
Язык : English
Default : Да
Forced : Нет
Аудио #1
Идентификатор : 2
Формат : AC-3
Формат/Информация : Audio Coding 3
Расширение режима : CM (complete main)
Параметр Endianness формата : Big
Идентификатор кодека : A_AC3
Продолжительность : 44 м.
Вид битрейта : Постоянный
Битрейт : 224 Кбит/сек
Каналы : 6 каналов
Расположение каналов : Front: L C R, Side: L R, LFE
Частота : 48,0 КГц
Битовая глубина : 16 бит
Метод сжатия : С потерями
Задержка видео : 24 мс.
Размер потока : 70,7 Мбайт (5%)
Язык : Russian
Default : Да
Forced : Нет
Аудио #2
Идентификатор : 3
Формат : AC-3
Формат/Информация : Audio Coding 3
Расширение режима : CM (complete main)
Параметр Endianness формата : Big
Идентификатор кодека : A_AC3
Продолжительность : 44 м.
Вид битрейта : Постоянный
Битрейт : 384 Кбит/сек
Каналы : 6 каналов
Расположение каналов : Front: L C R, Side: L R, LFE
Частота : 48,0 КГц
Битовая глубина : 16 бит
Метод сжатия : С потерями
Задержка видео : 24 мс.
Размер потока : 121 Мбайт (9%)
Язык : English
Default : Нет
Forced : Нет
Скриншоты:


[Цитировать]



Показать сообщения:    

Текущее время: 09-Дек 12:42

Часовой пояс: UTC + 3


Вы не можете начинать темы
Вы не можете отвечать на сообщения
Вы не можете редактировать свои сообщения
Вы не можете удалять свои сообщения
Вы не можете голосовать в опросах
Вы не можете прикреплять файлы к сообщениям
Вы не можете скачивать файлы

!ВНИМАНИЕ!
Сайт не предоставляет электронные версии произведений, а занимается лишь коллекционированием и каталогизацией ссылок, присылаемых и публикуемых на форуме нашими читателями. Если вы являетесь правообладателем какого-либо представленного материала и не желаете, чтобы ссылка на него находилась в нашем каталоге, свяжитесь с нами, и мы незамедлительно удалим ее. Файлы для обмена на трекере предоставлены пользователями сайта, и администрация не несет ответственности за их содержание. Просьба не заливать файлы, защищенные авторскими правами, а также файлы нелегального содержания!