[ Сегодня идет свободное скачивание без начисления Download ]


Статистика раздачи
Нет
 
   
 
Top  
 
 
-Неудержимый / Bullet to the Head (2012) BDRip- Русское название: Неудержимый
Оригинальное название: Bullet to the Head
Год выпуска: 2012
Производство: США / Dark Castle Entertainment, IM Global, After Dark Films
Жанр: Боевик, Криминал, Триллер
Перевод: Дублированный (Чистый звук)
Субтитры: Английские
Вид субтитров: Вшитые отключаемые-Дата мировой премьеры: 14 ноября 2012
Дата российской премьеры: 7 февраля 2013, «Централ Партнершип»
Дата выхода DVD релиза: 27 июня 2013, «CD Land»-Режиссер: Уолтер Хилл
Продюсер: Альфред Гоф, Александра Милчэн, Майлз Миллар
Актеры: Сильвестр Сталлоне, Санг Кенг, Сара Шахи, Адевале Акинойе-Агбаже, Джейсон Момоа, Кристиан Слэйтер, Джон Седа, Холт МакКэллани, Брайан Ван Холт, Вероника Розати-Описание фильма:
Киллер из Нового Орлеана объединяется с молодым полицейским из Нью-Йорка, расследуя дело, которое выводит их с мрачных задворок Нового Орлеана в светлые коридоры правительственных зданий в Вашингтоне. Необычный дуэт формируется в результате двух жестоких убийств. Герои убирают всех, кто стоит у них на пути, и готовы пожертвовать всем, чтобы отомстить.
-Продолжительность: 01:31:33
Качество видео: BDRip-Видеокодек: MPEG-4 AVC/H.264
Битрейт видео: ~8741 Кбит/сек
Размер кадра: 1920x1040
Аудио#1: Русский (AC3, 2 ch, 192 Кбит/сек)
Аудио#2: Английский (DTS, 1510 Кбит/сек (6 ch))

MediaInfo

Общее
Уникальный идентификатор : 239683580063080384136943069437157857649 (0xB45160DEF6797BD6904E307D55725971)
Полное имя : D:\Торрент раздача\Neuderjimyj.2013.D.BDRip.1080p.mkv
Формат : Matroska
Версия формата : Version 2
Размер файла : 6,67 Гбайт
Продолжительность : 1 ч. 31 м.
Общий поток : 10,4 Мбит/сек
Дата кодирования : UTC 2013-05-26 13:02:32
Программа кодирования : mkvmerge v5.0.1 ('Es ist Sommer') built on Oct 24 2011 19:45:06
Библиотека кодирования : libebml v1.2.2 + libmatroska v1.3.0
Видео
Идентификатор : 1
Формат : AVC
Формат/Информация : Advanced Video Codec
Профиль формата : High@L4.1
Параметр CABAC формата : Да
Параметр ReFrames формата : 4 кадра
Идентификатор кодека : V_MPEG4/ISO/AVC
Продолжительность : 1 ч. 31 м.
Битрейт : 8741 Кбит/сек
Ширина : 1920 пикселей
Высота : 1040 пикселей
Соотношение сторон : 1,85:1
Режим частоты кадров : Постоянный
Частота кадров : 23,976 кадра/сек
Цветовое пространство : YUV
Субдискретизация насыщенности : 4:2:0
Битовая глубина : 8 бит
Тип развёртки : Прогрессивная
Бит/(Пиксели*Кадры) : 0.183
Размер потока : 5,45 Гбайт (82%)
Библиотека кодирования : x264 core 133 r2334 a3ac64b
Настройки программы : cabac=1 / ref=4 / deblock=1:0:0 / analyse=0x3:0x133 / me=umh / subme=8 / psy=1 / psy_rd=1.00:0.00 / mixed_ref=1 / me_range=16 / chroma_me=1 / trellis=1 / 8x8dct=1 / cqm=0 / deadzone=21,11 / fast_pskip=0 / chroma_qp_offset=-2 / threads=24 / lookahead_threads=4 / sliced_threads=0 / nr=0 / decimate=1 / interlaced=0 / bluray_compat=0 / constrained_intra=0 / bframes=3 / b_pyramid=2 / b_adapt=1 / b_bias=0 / direct=1 / weightb=1 / open_gop=0 / weightp=2 / keyint=250 / keyint_min=23 / scenecut=40 / intra_refresh=0 / rc=2pass / mbtree=0 / bitrate=8741 / ratetol=1.0 / qcomp=0.60 / qpmin=0 / qpmax=69 / qpstep=4 / cplxblur=20.0 / qblur=0.5 / ip_ratio=1.40 / pb_ratio=1.30 / aq=1:1.00
Язык : English
Default : Да
Forced : Нет
Аудио #1
Идентификатор : 2
Формат : AC-3
Формат/Информация : Audio Coding 3
Расширение режима : CM (complete main)
Параметр Endianness формата : Big
Идентификатор кодека : A_AC3
Продолжительность : 1 ч. 31 м.
Вид битрейта : Постоянный
Битрейт : 192 Кбит/сек
Каналы : 2 канала
Расположение каналов : Front: L R
Частота : 48,0 КГц
Битовая глубина : 16 бит
Метод сжатия : С потерями
Размер потока : 126 Мбайт (2%)
Язык : Russian
Default : Да
Forced : Да
Аудио #2
Идентификатор : 3
Формат : DTS
Формат/Информация : Digital Theater Systems
Режим : 16
Параметр Endianness формата : Big
Идентификатор кодека : A_DTS
Продолжительность : 1 ч. 31 м.
Вид битрейта : Постоянный
Битрейт : 1509 Кбит/сек
Каналы : 6 каналов
Расположение каналов : Front: L C R, Side: L R, LFE
Частота : 48,0 КГц
Битовая глубина : 24 бит
Метод сжатия : С потерями
Размер потока : 988 Мбайт (14%)
Заголовок : English DTS
Язык : English
Default : Нет
Forced : Нет
Текст
Идентификатор : 4
Формат : UTF-8
Идентификатор кодека : S_TEXT/UTF8
Идентификатор кодека/Информация : UTF-8 Plain Text
Язык : English
Default : Нет
Forced : Нет
Меню
00:00:00.000 : en:00:00:00.000
00:06:32.434 : en:00:06:32.434
00:07:43.380 : en:00:07:43.380
00:11:30.440 : en:00:11:30.440
00:16:25.109 : en:00:16:25.109
00:21:54.355 : en:00:21:54.355
00:27:53.547 : en:00:27:53.547
00:30:30.078 : en:00:30:30.078
00:34:59.931 : en:00:34:59.931
00:40:39.312 : en:00:40:39.312
00:47:19.295 : en:00:47:19.295
00:56:18.375 : en:00:56:18.375
01:00:55.110 : en:01:00:55.110
01:03:45.447 : en:01:03:45.447
01:07:01.184 : en:01:07:01.184
01:09:18.571 : en:01:09:18.571
01:13:50.968 : en:01:13:50.968
01:17:32.356 : en:01:17:32.356
01:23:24.333 : en:01:23:24.333
01:26:23.011 : en:01:26:23.011

Знаете ли вы, что...

  • Режиссером фильма должен был стать Уэйн Крамер и начать съемки в феврале 2011 года. Однако из-за занятости Сильвестра Сталлоне на других проектах съемки пришлось отложить, после чего Крамер покинул проект. 11 апреля 2011 года режиссерское кресло занял Уолтер Хилл.
  • Изначально, на одну из главных ролей Уэй Крамер пригласил Томаса Джейна. Когда Крамер покинул проект, Джейн лично предложил Сталлоне нанять Уолтера Хилла. После того, как Хилл согласился, продюсер фильма Джоэл Силвер «выдворил» Томаса Джейна, так как считал, что в напарниках у Сильвестра Сталлоне должен быть «этнический парень».
  • Первый фильм Уолтера Хилла, спустя 10 лет после фильма «Обсуждению не подлежит» (2002).
  • Ближе к концу фильма Бономо встречает Квона в баре, и он снова пьет свой бурбон. Когда они заканчивают разговаривать, он полностью допивает содержимое своего стакана. Но когда опускает его на барную стойку, хорошо видно, что немного напитка еще осталось на дне.
Скриншоты:
Время раздачи: 24/7

[Цитировать]



Показать сообщения:    

Текущее время: 07-Дек 21:11

Часовой пояс: UTC + 3


Вы не можете начинать темы
Вы не можете отвечать на сообщения
Вы не можете редактировать свои сообщения
Вы не можете удалять свои сообщения
Вы не можете голосовать в опросах
Вы не можете прикреплять файлы к сообщениям
Вы не можете скачивать файлы

!ВНИМАНИЕ!
Сайт не предоставляет электронные версии произведений, а занимается лишь коллекционированием и каталогизацией ссылок, присылаемых и публикуемых на форуме нашими читателями. Если вы являетесь правообладателем какого-либо представленного материала и не желаете, чтобы ссылка на него находилась в нашем каталоге, свяжитесь с нами, и мы незамедлительно удалим ее. Файлы для обмена на трекере предоставлены пользователями сайта, и администрация не несет ответственности за их содержание. Просьба не заливать файлы, защищенные авторскими правами, а также файлы нелегального содержания!