[ Сегодня идет свободное скачивание без начисления Download ]


Статистика раздачи
Нет
 
   
 
Top  
 
 
-На самом дне океана / The Deep End of the Ocean (1999) DVDRip- Русское название: На самом дне океана
Оригинальное название: The Deep End of the Ocean
Год выпуска: 1999
Производство: США / Columbia Pictures Corporation, Mandalay Entertainment, Via Rosa Productions
Жанр: Драма-Описание фильма:
Молодая привлекательная женщина Бет Каппадора вместе с мужем Пэтом и тремя детьми отправляется на встречу выпускников своего колледжа. Приехав в гостиницу, она в суматохе всего лишь на мгновение отходит от своих детей. И случается непоправимое. Ее трехлетний сын бесследно исчезает, словно растворившись в переполненном людьми холле отеля. Надежда отыскать мальчика тает с каждой минутой. Его не видел никто. Все поиски оказываются безрезультатными. Время идет, но Бет не может смириться с потерей ребенка…-Режиссер: Улу Гросбард
Продюсер: Кейт Гинзбург, Стив Николаидес, Фрэнк Капра III
Актеры: Мишель Пфайффер, Трит Уильямс, Вупи Голдберг, Джонатан Джексон, Кори Бак, Райан Мерриман, Алекса Вега, Майкл МакГрэйди, Бренда Стронг, Майкл МакЭлрой-Продолжительность: 01:44:14
Перевод: Многоголосый закадровый, профессиональный- -Дата мировой премьеры: 12 марта 1999-Видеокодек: Xvid
Битрейт видео: ~1539 Кбит/сек
Размер кадра: 704x384
Качество видео: DVDRip
Аудиокодек: AC3 5.1
Битрейт аудио: 448 Кбит/сек

MediaInfo

Общее
Полное имя : D:\Торрент раздача\Na.samom.dne.okeana.1999.P.DVDRip.avi
Формат : AVI
Формат/Информация : Audio Video Interleave
Размер файла : 1,45 Гбайт
Продолжительность : 1 ч. 44 м.
Общий поток : 1997 Кбит/сек
Программа кодирования : VirtualDubMod 1.5.10.3 | www.virtualdub-fr.org || (build 2550/release)
Библиотека кодирования : VirtualDubMod build 2550/release
Видео
Идентификатор : 0
Формат : MPEG-4 Visual
Профиль формата : Advanced Simple@L5
Параметр BVOP формата : 2
Параметр QPel формата : Нет
Параметр GMC формата : Без точки перехода
Параметр матрицы формата : Default (H.263)
Идентификатор кодека : XVID
Идентификатор кодека/Подсказка : XviD
Продолжительность : 1 ч. 44 м.
Битрейт : 1539 Кбит/сек
Ширина : 704 пикселя
Высота : 384 пикселя
Соотношение сторон : 1,85:1
Частота кадров : 25,000 кадров/сек
Цветовое пространство : YUV
Субдискретизация насыщенности : 4:2:0
Битовая глубина : 8 бит
Тип развёртки : Прогрессивная
Метод сжатия : С потерями
Бит/(Пиксели*Кадры) : 0.228
Размер потока : 1,12 Гбайт (77%)
Библиотека кодирования : XviD 64
Аудио
Идентификатор : 1
Формат : AC-3
Формат/Информация : Audio Coding 3
Расширение режима : CM (complete main)
Параметр Endianness формата : Big
Идентификатор кодека : 2000
Продолжительность : 1 ч. 44 м.
Вид битрейта : Постоянный
Битрейт : 448 Кбит/сек
Каналы : 6 каналов
Расположение каналов : Front: L C R, Side: L R, LFE
Частота : 48,0 КГц
Битовая глубина : 16 бит
Метод сжатия : С потерями
Размер потока : 334 Мбайт (22%)
Выравнивание : Разделение по промежуткам
Продолжительность промежутка : 40 мс. (1,00 видеокадр)
Время предзагрузки промежутка : 500 мс.
Скриншоты:
Время раздачи: 24/7

[Цитировать]



Показать сообщения:    

Текущее время: 07-Дек 21:25

Часовой пояс: UTC + 3


Вы не можете начинать темы
Вы не можете отвечать на сообщения
Вы не можете редактировать свои сообщения
Вы не можете удалять свои сообщения
Вы не можете голосовать в опросах
Вы не можете прикреплять файлы к сообщениям
Вы не можете скачивать файлы

!ВНИМАНИЕ!
Сайт не предоставляет электронные версии произведений, а занимается лишь коллекционированием и каталогизацией ссылок, присылаемых и публикуемых на форуме нашими читателями. Если вы являетесь правообладателем какого-либо представленного материала и не желаете, чтобы ссылка на него находилась в нашем каталоге, свяжитесь с нами, и мы незамедлительно удалим ее. Файлы для обмена на трекере предоставлены пользователями сайта, и администрация не несет ответственности за их содержание. Просьба не заливать файлы, защищенные авторскими правами, а также файлы нелегального содержания!