[ Сегодня идет свободное скачивание без начисления Download ]


Статистика раздачи
Нет
 
   
 
Top  
 
 
-Неудержимый / Bullet to the Head (2012) HDRip- Русское название: Неудержимый
Оригинальное название: Bullet to the Head
Год выпуска: 2012
Производство: США / Dark Castle Entertainment, IM Global, After Dark Films
Жанр: Боевик, Криминал, Триллер
Перевод: Дублированный (Чистый звук)
Субтитры: Отсутствуют-Дата мировой премьеры: 14 ноября 2012
Дата российской премьеры: 7 февраля 2013, «Централ Партнершип»
Дата выхода DVD релиза: 27 июня 2013, «CD Land»-Режиссер: Уолтер Хилл
Продюсер: Альфред Гоф, Александра Милчэн, Майлз Миллар
Актеры: Сильвестр Сталлоне, Санг Кенг, Сара Шахи, Адевале Акинойе-Агбаже, Джейсон Момоа, Кристиан Слэйтер, Джон Седа, Холт МакКэллани, Брайан Ван Холт, Вероника Розати-Описание фильма:
Киллер из Нового Орлеана объединяется с молодым полицейским из Нью-Йорка, расследуя дело, которое выводит их с мрачных задворок Нового Орлеана в светлые коридоры правительственных зданий в Вашингтоне. Необычный дуэт формируется в результате двух жестоких убийств. Герои убирают всех, кто стоит у них на пути, и готовы пожертвовать всем, чтобы отомстить.- -Продолжительность: 01:31:33
Качество видео: HDRip-Видеокодек: Xvid
Битрейт видео: ~999 Кбит/сек
Размер кадра: 624x336
Аудиокодек: MP3 (2 ch)
Битрейт аудио: 128 Кбит/сек

MediaInfo

Общее
Полное имя : D:\Торрент раздача\Neuderjimyj_2013_HDRip.avi
Формат : AVI
Формат/Информация : Audio Video Interleave
Размер файла : 745 Мбайт
Продолжительность : 1 ч. 31 м.
Общий поток : 1137 Кбит/сек
Программа кодирования : VirtualDubMod 1.5.10.2 (build 2540/release)
Библиотека кодирования : VirtualDubMod build 2540/release
Видео
Идентификатор : 0
Формат : MPEG-4 Visual
Профиль формата : Advanced Simple@L5
Параметр BVOP формата : 1
Параметр QPel формата : Нет
Параметр GMC формата : Без точки перехода
Параметр матрицы формата : Выборочная
Идентификатор кодека : XVID
Идентификатор кодека/Подсказка : XviD
Продолжительность : 1 ч. 31 м.
Битрейт : 1000 Кбит/сек
Ширина : 624 пикселя
Высота : 336 пикселей
Соотношение сторон : 1,85:1
Частота кадров : 23,976 кадра/сек
Цветовое пространство : YUV
Субдискретизация насыщенности : 4:2:0
Битовая глубина : 8 бит
Тип развёртки : Прогрессивная
Метод сжатия : С потерями
Бит/(Пиксели*Кадры) : 0.199
Размер потока : 655 Мбайт (88%)
Библиотека кодирования : XviD 73
Аудио
Идентификатор : 1
Формат : MPEG Audio
Версия формата : Version 1
Профиль формата : Layer 3
Идентификатор кодека : 55
Идентификатор кодека/Подсказка : MP3
Продолжительность : 1 ч. 31 м.
Вид битрейта : Постоянный
Битрейт : 128 Кбит/сек
Каналы : 2 канала
Частота : 48,0 КГц
Метод сжатия : С потерями
Размер потока : 83,8 Мбайт (11%)
Выравнивание : Соединение по промежуткам
Продолжительность промежутка : 42 мс. (1,00 видеокадр)
Время предзагрузки промежутка : 504 мс.
Библиотека кодирования : LAME3.99r
Настройки программы : -m s -V 4 -q 2 -lowpass 17 -b 128

Знаете ли вы, что...

  • Режиссером фильма должен был стать Уэйн Крамер и начать съемки в феврале 2011 года. Однако из-за занятости Сильвестра Сталлоне на других проектах съемки пришлось отложить, после чего Крамер покинул проект. 11 апреля 2011 года режиссерское кресло занял Уолтер Хилл.
  • Изначально, на одну из главных ролей Уэй Крамер пригласил Томаса Джейна. Когда Крамер покинул проект, Джейн лично предложил Сталлоне нанять Уолтера Хилла. После того, как Хилл согласился, продюсер фильма Джоэл Силвер «выдворил» Томаса Джейна, так как считал, что в напарниках у Сильвестра Сталлоне должен быть «этнический парень».
  • Первый фильм Уолтера Хилла, спустя 10 лет после фильма «Обсуждению не подлежит» (2002).
  • Ближе к концу фильма Бономо встречает Квона в баре, и он снова пьет свой бурбон. Когда они заканчивают разговаривать, он полностью допивает содержимое своего стакана. Но когда опускает его на барную стойку, хорошо видно, что немного напитка еще осталось на дне.
Скриншоты:
Время раздачи: 24/7

[Цитировать]

Топик был перенесен из форума Новинки кинопроката в форум Боевик
Henkok



Показать сообщения:    

Текущее время: 10-Дек 11:54

Часовой пояс: UTC + 3


Вы не можете начинать темы
Вы не можете отвечать на сообщения
Вы не можете редактировать свои сообщения
Вы не можете удалять свои сообщения
Вы не можете голосовать в опросах
Вы не можете прикреплять файлы к сообщениям
Вы не можете скачивать файлы

!ВНИМАНИЕ!
Сайт не предоставляет электронные версии произведений, а занимается лишь коллекционированием и каталогизацией ссылок, присылаемых и публикуемых на форуме нашими читателями. Если вы являетесь правообладателем какого-либо представленного материала и не желаете, чтобы ссылка на него находилась в нашем каталоге, свяжитесь с нами, и мы незамедлительно удалим ее. Файлы для обмена на трекере предоставлены пользователями сайта, и администрация не несет ответственности за их содержание. Просьба не заливать файлы, защищенные авторскими правами, а также файлы нелегального содержания!