[ Сегодня идет свободное скачивание без начисления Download ]


Статистика раздачи
Нет
 
   
 
Top  
 
 
-Шутки в сторону / De l'autre cote du periph (2012) HDRip- Русское название: Шутки в сторону
Оригинальное название: De l'autre cote du periph
Год выпуска: 2012
Производство: Франция / Mandarin Films, Mars Films, M6 Films
Жанр: Комедия, криминал, детектив
Перевод: Дублированный (чистый звук)
Субтитры: Отсутствуют-Дата мировой премьеры: 19 декабря 2012
Дата российской премьеры: 9 мая 2013, «Экспонента», «Арена»
Дата выхода DVD-релиза: Июнь 2013, «Новый Диск»-Режиссер: Давид Шарон
Продюсер: Эрик Альтмайер, Николас Альтмайер
Актеры: Омар Си, Лоран Лафитт, Сабрина Уазани, Лионель Абелански, Юсеф Хаджди, Максим Мотт, Лео Леотье, Андре Маркон, Забу Брайтман, Патрик Боннель-Описание фильма:
Усман, дерзкий коп из парижского пригорода, и Франсуа, амбициозный столичный полицейский, объединяют усилия в расследовании убийства жены большого чиновника. Усман и Франсуа — разные. Усман живет по законам комедий с Эдди Мерфи, Франсуа обожает Бельмондо в «Профессионале» и «Смертельное оружие». Но расхождение в киновкусах — ничто, когда на кону громкое разоблачение коррупции в самых верхах и, конечно, дружба! Один плюс один = команда, а шутки — в сторону!- -Продолжительность: 01:34:44
Качество видео: HDRip-AVC-Видеокодек: MPEG-4 AVC/H.264
Битрейт видео: ~2100 kb/s
Размер кадра: 1024x432
Аудиокодек: AC3 (6 ch)
Битрейт аудио: 448 kb/s

MediaInfo

Общее
Уникальный идентификатор : 198808297573178761391938933687019681094 (0x959115D96CA69CF9BBAA490F9FD0B546)
Полное имя : D:\Торрент раздача\Шутки в сторону (2012) HDRip - AVC.mkv
Формат : Matroska
Версия формата : Version 2
Размер файла : 1,67 Гбайт
Продолжительность : 1 ч. 34 м.
Общий поток : 2524 Кбит/сек
Дата кодирования : UTC 2013-05-26 07:06:34
Программа кодирования : mkvmerge v5.7.0 ('The Whirlwind') built on Jul 8 2012 20:08:51
Библиотека кодирования : libebml v1.2.3 + libmatroska v1.3.0
Видео
Идентификатор : 1
Формат : AVC
Формат/Информация : Advanced Video Codec
Профиль формата : High@L4.1
Параметр CABAC формата : Да
Параметр ReFrames формата : 5 кадров
Идентификатор кодека : V_MPEG4/ISO/AVC
Продолжительность : 1 ч. 34 м.
Битрейт : 2100 Кбит/сек
Ширина : 1024 пикселя
Высота : 432 пикселя
Соотношение сторон : 2,40:1
Режим частоты кадров : Постоянный
Частота кадров : 24,000 кадра/сек
Цветовое пространство : YUV
Субдискретизация насыщенности : 4:2:0
Битовая глубина : 8 бит
Тип развёртки : Прогрессивная
Бит/(Пиксели*Кадры) : 0.198
Размер потока : 1,34 Гбайт (80%)
Библиотека кодирования : x264 core 125 r2208 d9d2288
Настройки программы : cabac=1 / ref=5 / deblock=1:0:0 / analyse=0x3:0x133 / me=umh / subme=9 / psy=1 / psy_rd=1.00:0.00 / mixed_ref=1 / me_range=32 / chroma_me=1 / trellis=2 / 8x8dct=1 / cqm=0 / deadzone=21,11 / fast_pskip=1 / chroma_qp_offset=-2 / threads=3 / lookahead_threads=1 / sliced_threads=0 / nr=0 / decimate=1 / interlaced=0 / bluray_compat=0 / constrained_intra=0 / bframes=5 / b_pyramid=2 / b_adapt=2 / b_bias=0 / direct=1 / weightb=1 / open_gop=0 / weightp=2 / keyint=250 / keyint_min=23 / scenecut=40 / intra_refresh=0 / rc_lookahead=60 / rc=abr / mbtree=1 / bitrate=2100 / ratetol=1.0 / qcomp=0.60 / qpmin=0 / qpmax=69 / qpstep=4 / ip_ratio=1.40 / aq=1:1.00
Default : Да
Forced : Нет
Аудио
Идентификатор : 2
Формат : AC-3
Формат/Информация : Audio Coding 3
Расширение режима : CM (complete main)
Параметр Endianness формата : Big
Идентификатор кодека : A_AC3
Продолжительность : 1 ч. 34 м.
Вид битрейта : Постоянный
Битрейт : 448 Кбит/сек
Каналы : 6 каналов
Расположение каналов : Front: L C R, Side: L R, LFE
Частота : 48,0 КГц
Битовая глубина : 16 бит
Метод сжатия : С потерями
Размер потока : 304 Мбайт (18%)
Заголовок : Дублированное [Чистый звук]
Язык : Russian
Default : Да
Forced : Нет
Скриншоты:
Время раздачи: 24/7

[Цитировать]

Топик был перенесен из форума Новинки кинопроката в форум Комедия
Henkok



Показать сообщения:    

Текущее время: 07-Дек 00:55

Часовой пояс: UTC + 3


Вы не можете начинать темы
Вы не можете отвечать на сообщения
Вы не можете редактировать свои сообщения
Вы не можете удалять свои сообщения
Вы не можете голосовать в опросах
Вы не можете прикреплять файлы к сообщениям
Вы не можете скачивать файлы

!ВНИМАНИЕ!
Сайт не предоставляет электронные версии произведений, а занимается лишь коллекционированием и каталогизацией ссылок, присылаемых и публикуемых на форуме нашими читателями. Если вы являетесь правообладателем какого-либо представленного материала и не желаете, чтобы ссылка на него находилась в нашем каталоге, свяжитесь с нами, и мы незамедлительно удалим ее. Файлы для обмена на трекере предоставлены пользователями сайта, и администрация не несет ответственности за их содержание. Просьба не заливать файлы, защищенные авторскими правами, а также файлы нелегального содержания!