[ Сегодня идет свободное скачивание без начисления Download ]


Статистика раздачи
Нет
 
   
 
Top  
 
 
-Порядок и мораль / L'ordre et la morale (2011) HDRip- Русское название: Порядок и мораль
Оригинальное название: L'ordre et la morale
Год выпуска: 2011
Производство: Франция / Cofinova 7, MNP Entreprise, Nord-Ouest Productions
Жанр: Боевик, Драма, История-Описание фильма:
Апрель 1988, остров Увеа, Новая Каледония. 30 жандармов взяты в заложники группой сепаратистов-канаков. 300 военных отправлено из Франции для восстановления порядка. 2 человека друг против друга : Филипп Легоржу, капитан элитного подразделения жандармерии, и Альфонс Дьяну, шеф группы сепаратистов. Выходя за рамки общих ценностей, они пытаются прийти к решению. Но в разгар президентских выборов, когда политические ставки высоки, порядок не всегда продиктован моральными принципами…-Режиссер: Матьё Кассовиц
Продюсер: Матьё Кассовиц, Христоф Россигнон, Филипп Боэффард
Актеры: Матьё Кассовиц, Иаб Лапакас, Малик Зиди, Александр Стайгер, Даниэль Мартен, Филипп Торретон, Сильви Тестю, Стив Уне, Филипп де Жаклин Дюльфе, Патрик Фьерри-Продолжительность: 02:14:35
Перевод: Одноголосый закадровый, любительский
Озвучка / Автор перевода: den904 / Janetta- -Дата мировой премьеры: 12 сентября 2011-Видеокодек: Xvid
Битрейт видео: ~1719 Кбит/с
Размер кадра: 720x304
Качество видео: HDRip
Аудиокодек: AC3 5.1
Битрейт аудио: 448 Кбит/с

Знаете ли вы, что...

Сюжетом к фильму послужила реальная история захвата заложников сепаратистами-канаками в апреле 1988 года на острове Увеа (Новая Каледония). 22 числа ими была атакован пост жандармерии : 4 жандарма убиты и 27 взяты в заложники. 5 мая, силами армии и элитного подразделения жандармерии GIGN, заложники были освобождены, при этом погибло 2-е военных и 19 сепаратистов было убито.

MediaInfo

Общее
Полное имя : D:\Торрент раздача\Poriadok.i.moral.2011.L1.HDRip.2100MB.avi
Формат : AVI
Формат/Информация : Audio Video Interleave
Профиль формата : OpenDML
Размер файла : 2,05 Гбайт
Продолжительность : 2 ч. 14 м.
Общий поток : 2180 Кбит/сек
Программа кодирования : VirtualDubMod 1.5.10.2 (build 2540/release)
Библиотека кодирования : VirtualDubMod build 2540/release
Видео
Идентификатор : 0
Формат : MPEG-4 Visual
Профиль формата : Advanced Simple@L5
Параметр BVOP формата : 2
Параметр QPel формата : Нет
Параметр GMC формата : Без точки перехода
Параметр матрицы формата : Default (H.263)
Идентификатор кодека : XVID
Идентификатор кодека/Подсказка : XviD
Продолжительность : 2 ч. 14 м.
Битрейт : 1720 Кбит/сек
Ширина : 720 пикселей
Высота : 304 пикселя
Соотношение сторон : 2,35:1
Частота кадров : 24,000 кадра/сек
Цветовое пространство : YUV
Субдискретизация насыщенности : 4:2:0
Битовая глубина : 8 бит
Тип развёртки : Прогрессивная
Метод сжатия : С потерями
Бит/(Пиксели*Кадры) : 0.327
Размер потока : 1,62 Гбайт (79%)
Библиотека кодирования : XviD 1.2.1 (UTC 2008-12-04)
Аудио
Идентификатор : 1
Формат : AC-3
Формат/Информация : Audio Coding 3
Расширение режима : CM (complete main)
Параметр Endianness формата : Big
Идентификатор кодека : 2000
Продолжительность : 2 ч. 14 м.
Вид битрейта : Постоянный
Битрейт : 448 Кбит/сек
Каналы : 6 каналов
Расположение каналов : Front: L C R, Side: L R, LFE
Частота : 48,0 КГц
Битовая глубина : 16 бит
Метод сжатия : С потерями
Размер потока : 431 Мбайт (21%)
Выравнивание : Разделение по промежуткам
Продолжительность промежутка : 42 мс. (1,00 видеокадр)
Время предзагрузки промежутка : 500 мс.
Скриншоты:
Время раздачи: 24/7

[Цитировать]



Показать сообщения:    

Текущее время: 11-Дек 05:17

Часовой пояс: UTC + 3


Вы не можете начинать темы
Вы не можете отвечать на сообщения
Вы не можете редактировать свои сообщения
Вы не можете удалять свои сообщения
Вы не можете голосовать в опросах
Вы не можете прикреплять файлы к сообщениям
Вы не можете скачивать файлы

!ВНИМАНИЕ!
Сайт не предоставляет электронные версии произведений, а занимается лишь коллекционированием и каталогизацией ссылок, присылаемых и публикуемых на форуме нашими читателями. Если вы являетесь правообладателем какого-либо представленного материала и не желаете, чтобы ссылка на него находилась в нашем каталоге, свяжитесь с нами, и мы незамедлительно удалим ее. Файлы для обмена на трекере предоставлены пользователями сайта, и администрация не несет ответственности за их содержание. Просьба не заливать файлы, защищенные авторскими правами, а также файлы нелегального содержания!