[ Сегодня идет свободное скачивание без начисления Download ]


Статистика раздачи
Нет
 
   
 
Top  
 
 
-Татуировка в виде бабочки / The Butterfly Tattoo (2009) DVD9- Русское название: Татуировка в виде бабочки
Оригинальное название: The Butterfly Tattoo
Год выпуска: 2009
Производство: Нидерланды , Dynamic Entertainment DEH
Жанр: Триллер, драма, мелодрама
Перевод: Профессиональный (многоголосный, закадровый)
Язык субтитров: Русский
Вид субтитров: Вшитые (отключаемые)

Дата мировой премьеры: 17 апреля 2009
Релиз на DVD: 19 августа 2009, «Кармен Видео»
Бюджет: 250 000
Режиссер: Филип Хоукинс/Phil Hawkins
Cценарий: Стефен Поттс/Stephen Potts, Филип Пуллман/Philip Pullman (...роман)
Актеры: Дункан Стюарт, Джессика Блейк, Эйдан Маграт, Кристофер Дэйн, Дэн Морган, Шазади Бегум, Питер Истербрук, Алвин Аддо-Квайе, Ричард Холлинворт, Дебра Бэйкер, Клер Форд, Энтони Да Силва, Эбигейл Тарттелин, Джонатан Хиггс, Симон Брэндон и др.
Описание фильма:
Тату в виде бабочки символизирует красоту, непостоянство, порочность. Так же это символ возрождения, символ самой жизни. Она думала, что бабочка принесет ей счастье и изменит мир к лучшему... Но бабочки не живут долго.
Теплым июньским вечером на балу в университете Оксфорда Крис Маршал знакомится с Дженни - красоткой с тату в виде бабочки, - и совершенно теряет голову от любви. Однако судьба не столь благосклонна к современным Ромео и Джульетте. У Криса есть босс, в темном прошлом которого остались кое-какие грешки, расплаты за которые жаждут его бывшие подельники. Они не оставят в покое ни своего должника, ни тех, кто хоть как-то с ним связан, в том числе и двух невинных влюбленных... Да и сама Дженни, ее прошлое и ее тату скрывают мрачные тайны, разгадка которых может стоить Крису очень дорого.
Экранизация детективного романа Филипа Пуллмана, одного из лучших современных писателей Англии, автора знаменитого романа "Золотой компас".
Дополнительные материалы:
- "Татуировка в виде бабочки" - дубли не вошедшие в фильм (0:16:38) - рус. перевод
Продолжительность: 01:40:55
Качество: DVD
Формат: DVD9
Видео кодек: MPEG-2
Битрейт видео: 4850 Кбит/сек
Размер кадра: [email protected] PAL 16:9 VBR, Auto Letterboxed
Аудио#1: Русский АС-3 6.0 448 Кбит/сек 48,0 КГц 16 бит
Аудио#2: Английский АС-3 6.0 448 Кбит/сек 48,0 КГц 16 бит

Скриншоты меню


Скриншоты:

DVDInfo

Title: Tatuirovka_v_vide_babochki_DVD9
Size: 4.73 Gb ( 4 957 688,00 KBytes ) - DVD-9
Enabled regions: 1, 2, 3, 4, 5, 6, 7, 8
VTS_01 :
Play Length: 00:00:05
Video: PAL 16:9 (720x576) VBR, Auto Letterboxed
VTS_02 :
Play Length: 00:00:12
Video: PAL 16:9 (720x576) VBR, Auto Letterboxed
Audio:
Russian (Dolby AC3, 6 ch)
VTS_03 :
Play Length: 01:40:55
Video: PAL 16:9 (720x576) VBR, Auto Letterboxed
Audio:
Russian (Dolby AC3, 6 ch)
English (Dolby AC3, 6 ch)
Subtitles:
Russian
VTS_04 :
Play Length: 00:16:38
Video: PAL 16:9 (720x576) VBR, Auto Letterboxed
Audio:
Russian (Dolby AC3, 2 ch)
English (Dolby AC3, 2 ch)
Subtitles:
Russian

MediaInfo

Общее
Полное имя : M:\Tatuirovka_v_vide_babochki_DVD9\VIDEO_TS\VTS_03_1.VOB
Формат : MPEG-PS
Размер файла : 1024 Мбайт
Продолжительность : 24 м.
Режим общего битрейта : Переменный
Общий поток : 5863 Кбит/сек
Библиотека кодирования : (c) 1998-2007 Womble Multimedia, Inc. / MPEG Video Wizard (04/2007) / May 25 2007
Видео
Идентификатор : 224 (0xE0)
Формат : MPEG Video
Версия формата : Version 2
Профиль формата : [email protected]
Параметр BVOP формата : Да
Параметр матрицы формата : Выборочная
Параметр GOP формата : M=3, N=15
Продолжительность : 24 м.
Вид битрейта : Переменный
Битрейт : 4850 Кбит/сек
Максимальный битрейт : 8000 Кбит/сек
Ширина : 720 пикселей
Высота : 576 пикселей
Соотношение сторон : 16:9
Частота кадров : 25,000 кадров/сек
Стандарт вещания : PAL
Цветовое пространство : YUV
Субдискретизация насыщенности : 4:2:0
Битовая глубина : 8 бит
Тип развёртки : Чересстрочная
Порядок развёртки : Верхнее поле первое
Метод сжатия : С потерями
Бит/(Пиксели*Кадры) : 0.468
TimeCode_FirstFrame : 00:00:00:00
TimeCode_Source : Group of pictures header
Размер потока : 847 Мбайт (83%)
Библиотека кодирования : (c) 1998-2007 Womble Multimedia, Inc. / MPEG Video Wizard (04/2007) / May 25 2007
Аудио #1
Идентификатор : 189 (0xBD)-128 (0x80)
Формат : AC-3
Формат/Информация : Audio Coding 3
Расширение режима : CM (complete main)
Параметр Endianness формата : Big
Режим смешивания : DVD-Video
Продолжительность : 24 м.
Вид битрейта : Постоянный
Битрейт : 448 Кбит/сек
Каналы : 6 каналов
Расположение каналов : Front: L C R, Side: L R, LFE
Частота : 48,0 КГц
Битовая глубина : 16 бит
Метод сжатия : С потерями
Размер потока : 78,2 Мбайт (8%)
Аудио #2
Идентификатор : 189 (0xBD)-129 (0x81)
Формат : AC-3
Формат/Информация : Audio Coding 3
Расширение режима : CM (complete main)
Параметр Endianness формата : Big
Режим смешивания : DVD-Video
Продолжительность : 24 м.
Вид битрейта : Постоянный
Битрейт : 448 Кбит/сек
Каналы : 6 каналов
Расположение каналов : Front: L C R, Side: L R, LFE
Частота : 48,0 КГц
Битовая глубина : 16 бит
Метод сжатия : С потерями
Размер потока : 78,2 Мбайт (8%)
Текст #1
Идентификатор : 189 (0xBD)-33 (0x21)
Формат : RLE
Формат/Информация : Run-length encoding
Режим смешивания : DVD-Video
Текст #2
Идентификатор : 189 (0xBD)-34 (0x22)
Формат : RLE
Формат/Информация : Run-length encoding
Режим смешивания : DVD-Video
Меню
Время раздачи: 24/7 (по возможности)

[Цитировать]



Показать сообщения:    

Текущее время: 06-Дек 05:56

Часовой пояс: UTC + 3


Вы не можете начинать темы
Вы не можете отвечать на сообщения
Вы не можете редактировать свои сообщения
Вы не можете удалять свои сообщения
Вы не можете голосовать в опросах
Вы не можете прикреплять файлы к сообщениям
Вы не можете скачивать файлы

!ВНИМАНИЕ!
Сайт не предоставляет электронные версии произведений, а занимается лишь коллекционированием и каталогизацией ссылок, присылаемых и публикуемых на форуме нашими читателями. Если вы являетесь правообладателем какого-либо представленного материала и не желаете, чтобы ссылка на него находилась в нашем каталоге, свяжитесь с нами, и мы незамедлительно удалим ее. Файлы для обмена на трекере предоставлены пользователями сайта, и администрация не несет ответственности за их содержание. Просьба не заливать файлы, защищенные авторскими правами, а также файлы нелегального содержания!