[ Сегодня идет свободное скачивание без начисления Download ]


Статистика раздачи
Нет
 
   
 
Top  
 
 
-Черный рыцарь / Black Knight (2001) HDRip [H.264] -«It's only a flesh wound!»- Русское название: Черный рыцарь
Оригинальное название: Black Knight
Год выпуска: 2001
Жанр: Фэнтези, Комедия, Приключения
Страна: США
Производство: 20th Century Fox Film Corporation, Epsilon Motion Pictures, Firm, New Regency Pictures, Regency Enterprises, Runteldat Entertainment
Описание фильма:
Был обычный летний день. Джамал, как обычно, чистил ров в городском парке развлечений «Средневековый мир». Но судьба уже готовила ему самое веселое и безумное приключение в его жизни…
Случайно перевернувшись через перила моста, Джамал падает в воду и выныривает в Средневековой Англии! Принятый за посла из Нормандии из-за странной одежды и манеры говорить, он знакомится с очаровательной заговорщицей, которая хочет свергнуть короля-тирана.
Затянутый в заговор, Джамал между делом планирует открытие сети ресторанов быстрого питания, соблазняет дочку короля и запугивает до смерти всех горожан своими «колдовскими» способностями…
Режиссер: Джил Джангер
Сценарий: Дэррил Куорлз, Питер Галк, Джерри Суоллоу
Продюсер: Джек Бродский, Пичес Дэвис, Майкл Грин
Актеры: Мартин Лоуренс, Марша Томасон, Том Уилкинсон, Винсент Риган, Майкл Кантримэн, Кевин Конуэй, Джаннетт Вигар, Эрик Дженсен, Дикран Тулейн, Хелен Кэри
Продолжительность: 01:35:37
Перевод: Многоголосый закадровый

Дата мировой премьеры: 15 ноября 2001
Дата выхода DVD релиза: 16 октября 2008, «Двадцатый Век Фокс СНГ»
Видеокодек: MPEG-4 AVC/H.264
Битрейт видео: ~2240 Кбит/сек
Размер кадра: 720x304
Качество видео: HDRip
Аудиокодек: AC3 5.1
Битрейт аудио: 384 Кбит/сек

Знаете ли вы, что...

Согласно информации от производителей съемки фильма происходили в Уилмингтоне (штат Северная Каролина), а сцены современности были сняты в Каролина-Бич (штат Северная Каролина).
Первоначально фильм должен был выйти в мае 2001 года, затем в январе 2001. В конечном счете он появился на свет 21 ноября 2001 года.
Первоначально в фильме должен был сниматься Крис Такер, который отказался сниматься без 15-миллионного гонорара.
Сцена, в которой принцесса Регина спотыкается через покрывала на своей кровати и падает, изначально не была запланирована в сценарии. Джаннетт Вигар по чистой случайности споткнулась и упала, но получившиеся при этом кадры так понравились режиссёру, что он включил их в финальную версию фильма.
В некоторых сценах фильма виден флаг Венгрии.
Хореографом одного из танцев была Пола Абдул.

Реценция с кинопоиска от Gellar:

Средневековый рэп
Довольно забавная, эксцентричная комедия, с незатейливым сюжетом. Безусловно, эту комедию нельзя отнести к шедеврам киноискусства, ибо создавалась она исключительно для расслабленного просмотра, после тяжелого трудового дня.
Изначально, главного героя должен был играть Крис Рок, но как видится мне, фильм не потерял ничего с заменой на другого блестящего чернокожего комика Мартина Лоуренса. Своей непревзойденной мимикой он привносит свой неповторимый шарм.
Обычный рабочий Джамал, в результате несчастного случая падает в реку, а выныривает в 14 веке. Сначала он воспринимает все происходящее как постановку, спектакль, но со временем осознает, куда он попал. Мартин начинает импровизировать, чтобы хоть как-нибудь выпутаться из сложившейся ситуации. При этом он постоянно попадает в неловкие ситуации. Пожалуй, самые запоминающиеся эпизоды это поездка на лошади и «черный» рэп для царя.
В фильме присутствует все: и любовь, и предательство, море комичных ситуаций, ну и конечно же хэппи энд. Немного удивляет огромный бюджет фильма в 50 миллионов долларов. Мне не очень понятно, куда они все ушли!? Разве что для съемок был арендован настоящий замок, ну это уже не так важно.
Хорошая, смешная комедия, в духе фильмов с Мартином Лоуренсом, несомненно, доставит вам удовольствие.

MediaInfo:

General
Unique ID : 242235968228740103260882894732061748530 (0xB63CF352C8C0FD278138475B568AAD32)
Complete name : H:\Downloads\Черный рыцарь.mkv
Format : Matroska
Format version : Version 4 / Version 2
File size : 1.75 GiB
Duration : 1h 35mn
Overall bit rate : 2 625 Kbps
Encoded date : UTC 2013-05-27 20:58:43
Writing application : mkvmerge v6.0.0 ('Coming Up For Air') built on Jan 20 2013 09:52:00
Writing library : libebml v1.3.0 + libmatroska v1.4.0
Video
ID : 1
Format : AVC
Format/Info : Advanced Video Codec
Format profile : High@L3.0
Format settings, CABAC : Yes
Format settings, ReFrames : 8 frames
Codec ID : V_MPEG4/ISO/AVC
Duration : 1h 35mn
Bit rate : 2 240 Kbps
Width : 720 pixels
Height : 304 pixels
Display aspect ratio : 2.35:1
Frame rate mode : Constant
Frame rate : 23.976 fps
Color space : YUV
Chroma subsampling : 4:2:0
Bit depth : 8 bits
Scan type : Progressive
Bits/(Pixel*Frame) : 0.427
Stream size : 1.46 GiB (83%)
Title : Black Knight
Writing library : x264 core 125 r2208 d9d2288
Encoding settings : cabac=1 / ref=8 / deblock=1:-1:-1 / analyse=0x3:0x133 / me=umh / subme=9 / psy=1 / psy_rd=1.00:0.10 / mixed_ref=1 / me_range=32 / chroma_me=1 / trellis=2 / 8x8dct=1 / cqm=0 / deadzone=21,11 / fast_pskip=0 / chroma_qp_offset=-3 / threads=6 / lookahead_threads=1 / sliced_threads=0 / nr=0 / decimate=1 / interlaced=0 / bluray_compat=0 / constrained_intra=0 / bframes=3 / b_pyramid=2 / b_adapt=2 / b_bias=0 / direct=3 / weightb=1 / open_gop=0 / weightp=2 / keyint=250 / keyint_min=25 / scenecut=40 / intra_refresh=0 / rc_lookahead=60 / rc=2pass / mbtree=1 / bitrate=2240 / ratetol=1.0 / qcomp=0.60 / qpmin=10 / qpmax=51 / qpstep=4 / cplxblur=20.0 / qblur=0.5 / ip_ratio=1.40 / aq=1:1.00
Language : English
Default : Yes
Forced : No
Audio
ID : 2
Format : AC-3
Format/Info : Audio Coding 3
Mode extension : CM (complete main)
Format settings, Endianness : Big
Codec ID : A_AC3
Duration : 1h 35mn
Bit rate mode : Constant
Bit rate : 384 Kbps
Channel(s) : 6 channels
Channel positions : Front: L C R, Side: L R, LFE
Sampling rate : 48.0 KHz
Bit depth : 16 bits
Compression mode : Lossy
Stream size : 263 MiB (15%)
Title : Профессиональный (многоголосый закадровый)
Language : Russian
Default : Yes
Forced : No
Скриншоты: Время раздачи: с 13:00 до 01:00 по Москве (выходные круглосуточно), до 10 скачавших

[Цитировать]



Показать сообщения:    

Текущее время: 09-Дек 16:33

Часовой пояс: UTC + 3


Вы не можете начинать темы
Вы не можете отвечать на сообщения
Вы не можете редактировать свои сообщения
Вы не можете удалять свои сообщения
Вы не можете голосовать в опросах
Вы не можете прикреплять файлы к сообщениям
Вы не можете скачивать файлы

!ВНИМАНИЕ!
Сайт не предоставляет электронные версии произведений, а занимается лишь коллекционированием и каталогизацией ссылок, присылаемых и публикуемых на форуме нашими читателями. Если вы являетесь правообладателем какого-либо представленного материала и не желаете, чтобы ссылка на него находилась в нашем каталоге, свяжитесь с нами, и мы незамедлительно удалим ее. Файлы для обмена на трекере предоставлены пользователями сайта, и администрация не несет ответственности за их содержание. Просьба не заливать файлы, защищенные авторскими правами, а также файлы нелегального содержания!