[ Сегодня идет свободное скачивание без начисления Download ]


Статистика раздачи
Нет
 
   
 
Top  
 
 
Информация о фильме
Название: Жатва
Оригинальное название: The Reaping
Год выхода: 2007
Жанр: Ужасы, триллер
Режиссер: Стивен Хопкинс
В ролях: Хилари Суонк, Аннасофия Робб, Идрис Эльба, Уильям Рэгсдейл, Дэвид Морриси, Эдди Фернандес, Бургесс Дженкинс, Лара Грайс, Маноло Кардона
О фильме:
Главная героиня знаменита оригинальным хобби - развеивать мифы. Придумав себе новое развлечение, она отправляется в маленький, Богом забытый городок в штате Техас с намерением развеять его зловещую легенду.
В процессе расследования она понимает, что на этот раз ей придется столкнуться с чем-то действительно мистическим… Ужас, царящий в городе, - это не россказни впечатлительных путешественников, а не что иное, как 10 страшнейших библейских проклятий…

Выпущено: США / Warner Bros. Pictures, Chime Films, Chime Productions LLC, Dark Castle Entertainment, Eyetronics, Village Roadshow Pictures
Продолжительность: 01:39:23
Перевод: Дублированный, профессиональный многоголосый
Файл
Кодек: MPEG-4 AVC
Качество: BDRip 1080p
Видео: 1920x800, 23.976 fps, 10045 kbps
Звук:
Russian: AC3, 384 Kbps (6 ch) Дублированный (МОСФИЛЬМ-мастер)
Ukrainian: AC3, 384 Kbps (6 ch) Профессиональный многоголосый (ICTV)
English: AC3, 640 Kbps (6 ch) Original
Субтитры: Russian, English
Семпл

MediaInfo & x264

Общее
Уникальный идентификатор : 193647821207163789838172984473452882434 (0x91AF36B88144ED40B6846185BB492A02)
Полное имя : The.Reaping.2007.х264.BDRip.1080р.mkv
Формат : Matroska
Версия формата : Version 4 / Version 2
Размер файла : 7,95 Гбайт
Продолжительность : 1 ч. 39 м.
Общий поток : 11,4 Мбит/сек
Название фильма : ?WIDDER?
Дата кодирования : UTC 2013-05-28 17:07:18
Программа кодирования : mkvmerge v6.2.0 ('Promised Land') built on Apr 28 2013 12:22:01
Библиотека кодирования : libebml v1.3.0 + libmatroska v1.4.0
Видео
Идентификатор : 1
Формат : AVC
Формат/Информация : Advanced Video Codec
Профиль формата : High@L4.1
Параметр CABAC формата : Да
Параметр ReFrames формата : 5 кадров
Идентификатор кодека : V_MPEG4/ISO/AVC
Продолжительность : 1 ч. 39 м.
Битрейт : 10,0 Мбит/сек
Ширина : 1920 пикселей
Высота : 800 пикселей
Соотношение сторон : 2,40:1
Режим частоты кадров : Постоянный
Частота кадров : 23,976 кадра/сек
Цветовое пространство : YUV
Субдискретизация насыщенности : 4:2:0
Битовая глубина : 8 бит
Тип развёртки : Прогрессивная
Бит/(Пиксели*Кадры) : 0.273
Размер потока : 6,81 Гбайт (86%)
Заголовок : Жатва / The Reaping (2007)
Библиотека кодирования : x264 core 133 r2334 a3ac64b
Настройки программы : cabac=1 / ref=5 / deblock=1:-3:-3 / analyse=0x3:0x133 / me=umh / subme=11 / psy=1 / psy_rd=1.00:0.00 / mixed_ref=1 / me_range=48 / chroma_me=1 / trellis=2 / 8x8dct=1 / cqm=0 / deadzone=21,11 / fast_pskip=0 / chroma_qp_offset=-2 / threads=12 / lookahead_threads=1 / sliced_threads=0 / nr=0 / decimate=1 / interlaced=0 / bluray_compat=0 / constrained_intra=0 / bframes=5 / b_pyramid=2 / b_adapt=2 / b_bias=0 / direct=3 / weightb=1 / open_gop=0 / weightp=2 / keyint=240 / keyint_min=23 / scenecut=40 / intra_refresh=0 / rc_lookahead=60 / rc=2pass / mbtree=0 / bitrate=10045 / ratetol=1.0 / qcomp=0.60 / qpmin=0 / qpmax=69 / qpstep=4 / cplxblur=20.0 / qblur=0.5 / vbv_maxrate=50000 / vbv_bufsize=50000 / nal_hrd=none / ip_ratio=1.40 / pb_ratio=1.30 / aq=1:0.80
Язык : English
Default : Да
Forced : Нет
Аудио #1
Идентификатор : 2
Формат : AC-3
Формат/Информация : Audio Coding 3
Расширение режима : CM (complete main)
Параметр Endianness формата : Big
Идентификатор кодека : A_AC3
Продолжительность : 1 ч. 39 м.
Вид битрейта : Постоянный
Битрейт : 384 Кбит/сек
Каналы : 6 каналов
Расположение каналов : Front: L C R, Side: L R, LFE
Частота : 48,0 КГц
Битовая глубина : 16 бит
Метод сжатия : С потерями
Размер потока : 273 Мбайт (3%)
Заголовок : AC3, 384 Kbps (6 ch) Дублированный (МОСФИЛЬМ-мастер)
Язык : Russian
Default : Да
Forced : Нет
Аудио #2
Идентификатор : 3
Формат : AC-3
Формат/Информация : Audio Coding 3
Расширение режима : CM (complete main)
Параметр Endianness формата : Big
Идентификатор кодека : A_AC3
Продолжительность : 1 ч. 39 м.
Вид битрейта : Постоянный
Битрейт : 384 Кбит/сек
Каналы : 6 каналов
Расположение каналов : Front: L C R, Side: L R, LFE
Частота : 48,0 КГц
Битовая глубина : 16 бит
Метод сжатия : С потерями
Размер потока : 273 Мбайт (3%)
Заголовок : AC3, 384 Kbps (6 ch) Профессиональный многоголосый (ICTV)
Язык : Ukrainian
Default : Нет
Forced : Нет
Аудио #3
Идентификатор : 4
Формат : AC-3
Формат/Информация : Audio Coding 3
Расширение режима : CM (complete main)
Параметр Endianness формата : Big
Идентификатор кодека : A_AC3
Продолжительность : 1 ч. 39 м.
Вид битрейта : Постоянный
Битрейт : 640 Кбит/сек
Каналы : 6 каналов
Расположение каналов : Front: L C R, Side: L R, LFE
Частота : 48,0 КГц
Битовая глубина : 16 бит
Метод сжатия : С потерями
Размер потока : 455 Мбайт (6%)
Заголовок : AC3, 640 Kbps (6 ch) Original
Язык : English
Default : Нет
Forced : Нет
Текст #1
Идентификатор : 5
Формат : UTF-8
Идентификатор кодека : S_TEXT/UTF8
Идентификатор кодека/Информация : UTF-8 Plain Text
Язык : Russian
Default : Нет
Forced : Нет
Текст #2
Идентификатор : 6
Формат : UTF-8
Идентификатор кодека : S_TEXT/UTF8
Идентификатор кодека/Информация : UTF-8 Plain Text
Язык : English
Default : Нет
Forced : Нет
Меню
00:00:00.000 : en:Chapter 1
00:02:20.974 : en:Chapter 2
00:07:39.793 : en:Chapter 3
00:12:02.388 : en:Chapter 4
00:17:01.854 : en:Chapter 5
00:21:55.481 : en:Chapter 6
00:24:56.829 : en:Chapter 7
00:28:16.361 : en:Chapter 8
00:32:34.286 : en:Chapter 9
00:37:02.053 : en:Chapter 10
00:41:15.807 : en:Chapter 11
00:45:08.706 : en:Chapter 12
00:49:36.807 : en:Chapter 13
00:54:14.084 : en:Chapter 14
01:00:04.935 : en:Chapter 15
01:02:24.574 : en:Chapter 16
01:06:03.960 : en:Chapter 17
01:10:47.410 : en:Chapter 18
01:15:57.887 : en:Chapter 19
01:19:36.772 : en:Chapter 20
01:23:20.996 : en:Chapter 21
01:27:18.233 : en:Chapter 22
01:31:53.341 : en:Chapter 23
01:33:30.605 : en:Chapter 24
____________________________________________
x264 [info]: frame I:1021 Avg QP:15.69 size:176313
x264 [info]: frame P:41482 Avg QP:17.97 size: 75269
x264 [info]: frame B:100475 Avg QP:19.86 size: 41616

[Цитировать]



Показать сообщения:    

Текущее время: 08-Дек 19:00

Часовой пояс: UTC + 3


Вы не можете начинать темы
Вы не можете отвечать на сообщения
Вы не можете редактировать свои сообщения
Вы не можете удалять свои сообщения
Вы не можете голосовать в опросах
Вы не можете прикреплять файлы к сообщениям
Вы не можете скачивать файлы

!ВНИМАНИЕ!
Сайт не предоставляет электронные версии произведений, а занимается лишь коллекционированием и каталогизацией ссылок, присылаемых и публикуемых на форуме нашими читателями. Если вы являетесь правообладателем какого-либо представленного материала и не желаете, чтобы ссылка на него находилась в нашем каталоге, свяжитесь с нами, и мы незамедлительно удалим ее. Файлы для обмена на трекере предоставлены пользователями сайта, и администрация не несет ответственности за их содержание. Просьба не заливать файлы, защищенные авторскими правами, а также файлы нелегального содержания!