[ Сегодня идет свободное скачивание без начисления Download ]


Статистика раздачи
Нет
 
   
 
Top  
 
 
Дикая природа России / Wild Russia
С 1 по 6 из (6)
Год выпуска: 2008
Страна: Сша,Германия
Производство: Animal Planet,JWM Productions,NDR Naturfilm
Жанр: Документальный,живая природа
Режиссер: Кристиан Баумейстер, Oliver Goetzl, Генри Микс
В ролях: Джейсон Хильдебрандт,Пэтерсон Джозеф
Перевод: Профессиональный (одноголосый) +оригинал
Субтитры: Отсутствуют
Описание: Совершите уникальное путешествие в самые отдаленные и неизведанные уголки России, поражающие богатством дикой природы, где можно побывать в огнедышащих кратерах вулканов и в ледовых пустынях, встретить белого медведя и амурского тигра.
Простираясь на 11 часовых поясов и расположившись на территории двух континентов, от центра Европы до Тихого океана, эта огромная страна поражает своим размахом и нетронутыми природными богатствами, которые в их первозданной красоте таят необъятные Российские просторы, раскинувшиеся вдали от шумных и тесных мегаполисов — Москвы и Санкт-Петербурга. Получив уникальную возможность впервые показать Дикую природу России во всем ее многообразии, мы совершим кинопутешествие с востока на запад, через горы, пустыни, вулканы, озера, и арктические льды. Наш удивительный шести серийный документальный фильм, снятый с использованием самой современной кинематографической техники, ярко и красочно расскажет об уникальных природных богатствах и заповедниках этой огромной страны.

[kp]477353[/kp] [imdb]tt1442188[/imdb]
Качество: DVDRip
Продолжительность: ~ 00:47:00 Для одной серии
Формат: AVI
Видео кодек: XviD
Аудио кодек: MP3
Видео: 720x416 (16:9),25.000 fps, XviD~ 1 779 Kbps avg, 0.238 bit/pixel
Аудио: 48.0 KHz,Layer 3,2 channels,128 Kbps Русский
Аудио #2: 48.0 KHz,Layer 3,2 channels,128 Kbps Оригинал
Премьера (мир): 25 декабря 2008

Media Info

General
Complete name : D:закачкиWild RussiaKamchatka.avi
Format : AVI
Format/Info : Audio Video Interleave
File size : 700 MiB
Duration : 47mn 51s
Overall bit rate : 2 045 Kbps
Writing application : VirtualDubMod 1.5.4.1 (build 2178/release)
Writing library : VirtualDubMod build 2178/release
Video
ID : 0
Format : MPEG-4 Visual
Format profile : Advanced [email protected]
Format settings, BVOP : 1
Format settings, QPel : No
Format settings, GMC : No warppoints
Format settings, Matrix : Custom
Codec ID : XVID
Codec ID/Hint : XviD
Duration : 47mn 51s
Bit rate : 1 779 Kbps
Width : 720 pixels
Height : 416 pixels
Display aspect ratio : 16:9
Frame rate : 25.000 fps
Color space : YUV
Chroma subsampling : 4:2:0
Bit depth : 8 bits
Scan type : Progressive
Compression mode : Lossy
Bits/(Pixel*Frame) : 0.238
Stream size : 609 MiB (87%)
Writing library : XviD 1.2.0.dev47 (UTC 2006-11-01)
Audio #1
ID : 1
Format : MPEG Audio
Format version : Version 1
Format profile : Layer 3
Mode : Joint stereo
Mode extension : MS Stereo
Codec ID : 55
Codec ID/Hint : MP3
Duration : 47mn 50s
Bit rate mode : Constant
Bit rate : 128 Kbps
Channel(s) : 2 channels
Sampling rate : 48.0 KHz
Compression mode : Lossy
Stream size : 43.8 MiB (6%)
Alignment : Aligned on interleaves
Interleave, duration : 80 ms (2.00 video frames)
Interleave, preload duration : 504 ms
Writing library : LAME3.98.2ЄЄЄЄЄЄЄЄЄ
Audio #2
ID : 2
Format : MPEG Audio
Format version : Version 1
Format profile : Layer 3
Mode : Joint stereo
Mode extension : MS Stereo
Codec ID : 55
Codec ID/Hint : MP3
Duration : 47mn 50s
Bit rate mode : Constant
Bit rate : 128 Kbps
Channel(s) : 2 channels
Sampling rate : 48.0 KHz
Compression mode : Lossy
Stream size : 43.8 MiB (6%)
Alignment : Aligned on interleaves
Interleave, duration : 80 ms (2.00 video frames)
Interleave, preload duration : 504 ms
Writing library : LAME3.98.2

Скриншоты



[Цитировать]



Показать сообщения:    

Текущее время: 05-Дек 19:42

Часовой пояс: UTC + 3


Вы не можете начинать темы
Вы не можете отвечать на сообщения
Вы не можете редактировать свои сообщения
Вы не можете удалять свои сообщения
Вы не можете голосовать в опросах
Вы не можете прикреплять файлы к сообщениям
Вы не можете скачивать файлы

!ВНИМАНИЕ!
Сайт не предоставляет электронные версии произведений, а занимается лишь коллекционированием и каталогизацией ссылок, присылаемых и публикуемых на форуме нашими читателями. Если вы являетесь правообладателем какого-либо представленного материала и не желаете, чтобы ссылка на него находилась в нашем каталоге, свяжитесь с нами, и мы незамедлительно удалим ее. Файлы для обмена на трекере предоставлены пользователями сайта, и администрация не несет ответственности за их содержание. Просьба не заливать файлы, защищенные авторскими правами, а также файлы нелегального содержания!