[ Сегодня идет свободное скачивание без начисления Download ]


Статистика раздачи
Нет
 
   
 
Top  
 
 
-12 раундов: Перезагрузка / 12 Rounds: Reloaded (2013) BDRip-- Русское название: 12 раундов: Перезагрузка
Оригинальное название: 12 Rounds: Reloaded
Год выпуска: 2013
Производство: США | WWE Studios
Жанр: Боевик
Перевод: Одноголосый закадровый, любительский
Озвучка / Автор перевода: [den904 / Janetta]
Режиссер: Роэль Рейн
Продюсер: Майкл Луизи, Марк Бьенсток, Крис Фосс
Актеры: Брайан Маркинсон, Рэнди Ортон, Синди Басби, Шон Роджерсон, Патрик Гилмор, Джесси Хатч, Колин Лоуренс, Челси Рейст, Фрейзер Айтчесон, Том Стивенс ...-Описание фильма:
Ник Мэллой - "медицинский техник" (EMT), втянут в смертельную 12-раундовую игру в "кошки-мышки" с линчевателем из прошлого. Времени нет, жизнь его жены висит на волоске, и пока не поздно EMT должны выяснить, почему он выбран быть пешкой в этой игре маньяка.-
Продолжительность: 01:34:11
Качество видео: BDRip 720p
Видеокодек: MPEG-4 AVC/H.264
Битрейт видео: ~5123 Kbps
Размер кадра: 1280*720
Audio#1: AC-3, 6 channels, 448 Kbps, 16 bits, русский
Audio #2: DTS, 6 channels, 1509 Kbps, 24 bits, английский

MediaInfo:

General
Unique ID                                : 252565720860770416826035809573648008963 (0xBE026372F9F512D39DC5ECD193810703)
Complete name                            : :\12.Rounds.2.2013.BDRip.720p.mkv
Format                                   : Matroska
Format version                           : Version 2
File size                                : 4.66 GiB
Duration                                 : 1h 34mn
Overall bit rate                         : 7 078 Kbps
Encoded date                             : UTC 2013-05-29 20:23:46
Writing application                      : mkvmerge v2.9.8 ('C'est le bon') built on Nov 20 2009 13:01:15
Writing library                          : libebml v0.7.9 + libmatroska v0.8.1
Video
ID                                       : 1
Format                                   : AVC
Format/Info                              : Advanced Video Codec
Format profile                           : [url=mailto:[email protected]][email protected][/url]
Format settings, CABAC                   : Yes
Format settings, ReFrames                : 9 frames
Codec ID                                 : V_MPEG4/ISO/AVC
Duration                                 : 1h 34mn
Bit rate                                 : 5 123 Kbps
Width                                    : 1 280 pixels
Height                                   : 720 pixels
Display aspect ratio                     : 16:9
Frame rate mode                          : Constant
Frame rate                               : 23.976 fps
Color space                              : YUV
Chroma subsampling                       : 4:2:0
Bit depth                                : 8 bits
Scan type                                : Progressive
Bits/(Pixel*Frame)                       : 0.232
Stream size                              : 3.28 GiB (70%)
Title                                    : 12.Rounds.2.2013.BluRay.720p.DTS.x264-CHD
Writing library                          : x264 core 132 r2309 3b1f1f7
Encoding settings                        : cabac=1 / ref=9 / deblock=1:-3:-3 / analyse=0x3:0x113 / me=umh / subme=10 / psy=1 / psy_rd=1.00:0.05 / mixed_ref=1 / me_range=32 / chroma_me=1 / trellis=2 / 8x8dct=1 / cqm=0 / deadzone=21,11 / fast_pskip=0 / chroma_qp_offset=-2 / threads=8 / lookahead_threads=1 / sliced_threads=0 / nr=0 / decimate=1 / interlaced=0 / bluray_compat=0 / constrained_intra=0 / bframes=5 / b_pyramid=2 / b_adapt=2 / b_bias=0 / direct=3 / weightb=1 / open_gop=0 / weightp=2 / keyint=250 / keyint_min=23 / scenecut=40 / intra_refresh=0 / rc=2pass / mbtree=0 / bitrate=5123 / ratetol=1.0 / qcomp=0.70 / qpmin=0 / qpmax=69 / qpstep=4 / cplxblur=20.0 / qblur=0.5 / ip_ratio=1.40 / pb_ratio=1.30 / aq=2:0.90
Language                                 : English
Default                                  : No
Forced                                   : No
Audio #1
ID                                       : 2
Format                                   : AC-3
Format/Info                              : Audio Coding 3
Mode extension                           : CM (complete main)
Format settings, Endianness              : Big
Codec ID                                 : A_AC3
Duration                                 : 1h 34mn
Bit rate mode                            : Constant
Bit rate                                 : 448 Kbps
Channel(s)                               : 6 channels
Channel positions                        : Front: L C R, Side: L R, LFE
Sampling rate                            : 48.0 KHz
Bit depth                                : 16 bits
Compression mode                         : Lossy
Stream size                              : 302 MiB (6%)
Language                                 : Russian
Default                                  : Yes
Forced                                   : Yes
Audio #2
ID                                       : 3
Format                                   : DTS
Format/Info                              : Digital Theater Systems
Mode                                     : 16
Format settings, Endianness              : Big
Codec ID                                 : A_DTS
Duration                                 : 1h 34mn
Bit rate mode                            : Constant
Bit rate                                 : 1 509 Kbps
Channel(s)                               : 6 channels
Channel positions                        : Front: L C R, Side: L R, LFE
Sampling rate                            : 48.0 KHz
Bit depth                                : 24 bits
Compression mode                         : Lossy
Stream size                              : 1 017 MiB (21%)
Title                                    : dts 5.1 1536kbps
Language                                 : English
Default                                  : No
Forced                                   : No
Скриншоты: Время раздачи: 24/7 до 3-х скачавших

[Цитировать]

Топик был перенесен из форума Новинки кинопроката (HD Video) в форум Зарубежное кино (HD Video)
Bootch



Показать сообщения:    

Текущее время: 04-Дек 21:26

Часовой пояс: UTC + 3


Вы не можете начинать темы
Вы не можете отвечать на сообщения
Вы не можете редактировать свои сообщения
Вы не можете удалять свои сообщения
Вы не можете голосовать в опросах
Вы не можете прикреплять файлы к сообщениям
Вы не можете скачивать файлы

!ВНИМАНИЕ!
Сайт не предоставляет электронные версии произведений, а занимается лишь коллекционированием и каталогизацией ссылок, присылаемых и публикуемых на форуме нашими читателями. Если вы являетесь правообладателем какого-либо представленного материала и не желаете, чтобы ссылка на него находилась в нашем каталоге, свяжитесь с нами, и мы незамедлительно удалим ее. Файлы для обмена на трекере предоставлены пользователями сайта, и администрация не несет ответственности за их содержание. Просьба не заливать файлы, защищенные авторскими правами, а также файлы нелегального содержания!