[ Сегодня идет свободное скачивание без начисления Download ]


Статистика раздачи
Нет
 
   
 
Top  
 
 
-Два дня в Нью-Йорке / 2 Days in New York (2012) BDRip- Русское название: Два дня в Нью-Йорке
Оригинальное название: 2 Days in New York
Год выпуска: 2012
Производство: Франция, Германия, Бельгия - Polaris Films, Temp?te Sous un Cr?ne, Senator Film Produktion
Жанр: Комедия
Перевод: Многоголосый закадровый, профессиональный
Субтитры: Вшитые отключаемые
Язык субтитров: Русский, английский
Дата мировой премьеры: 23 января 2012
Дата выхода DVD релиза: 27 мая 2013, «Новый Диск»
Режиссер: Жюли Дельпи / Julie Delpy
Актеры: Крис Рок, Жюли Дельпи, Альберт Дельпи, Алексия Ландо, Александр Наон, Кейт Бёртон, Дилан Бейкер, Даниэль Брюль, Тален Рут Райли, Оуэн Шипман
Описание фильма:
Марион, теперь счастливо живущая с Мингусом в их нью-йоркской квартире, нашла все, что ей было так необходимо, отношения, свой дом, успешную карьеру и себя саму в опасности, когда ее отец, сестра и экс-бойфренд решили к ним заглянуть из Франции.

Продолжительность: 01:35:44
Качество видео: BDRip 1080p
Видеокодек: MPEG-4 AVC/H.264
Видео: H.264, 8654 Кбит/с, 1920x1036, 24.000 кадр/с
Аудио #1: Русский: AC3, 448 кбит/c, 5.1, 48 kHz, 16 bit - многолосый закадровый
Аудио #2: Английский: DTS, 1536 кбит/c, 5.1, 48 kHz, 16 bit
Сохранены оригинальные чаптеры как на Blu-Ray

MediaInfo:

Общее
Уникальный идентификатор : 224150656524861893307494059330254252477 (0xA8A1D89CFE4E920DA03F6B048BD1A9BD)
Полное имя : D:\Video\2.Days.In.New.York.2012.BDRip.1080p.ac3.dts.Rus.Eng.mkv
Формат : Matroska
Версия формата : Version 2
Размер файла : 7,09 Гбайт
Продолжительность : 1 ч. 35 м.
Общий поток : 10,6 Мбит/сек
Название фильма : Два дня в Нью-Йорке | 2 Days in New York [2012] - MediaClub-kaspr
Дата кодирования : UTC 2013-05-29 06:04:49
Программа кодирования : mkvmerge v5.7.0 ('The Whirlwind') built on Aug 7 2012 14:11:40
Библиотека кодирования : libebml v1.2.3 + libmatroska v1.3.0
Видео
Идентификатор : 1
Формат : AVC
Формат/Информация : Advanced Video Codec
Профиль формата : [email protected]
Параметр CABAC формата : Да
Параметр ReFrames формата : 4 кадра
Идентификатор кодека : V_MPEG4/ISO/AVC
Продолжительность : 1 ч. 35 м.
Битрейт : 8654 Кбит/сек
Ширина : 1920 пикселей
Высота : 1036 пикселей
Соотношение сторон : 1,853
Частота кадров : 24,000 кадра/сек
Цветовое пространство : YUV
Субдискретизация насыщенности : 4:2:0
Битовая глубина : 8 бит
Тип развёртки : Прогрессивная
Бит/(Пиксели*Кадры) : 0.181
Размер потока : 5,64 Гбайт (80%)
Заголовок : MediaClub-kaspr
Библиотека кодирования : x264 core 130 r2273 b3065e6
Настройки программы : cabac=1 / ref=4 / deblock=1:-3:-3 / analyse=0x3:0x133 / me=umh / subme=11 / psy=1 / psy_rd=1.00:0.10 / mixed_ref=1 / me_range=32 / chroma_me=1 / trellis=2 / 8x8dct=1 / cqm=0 / deadzone=21,11 / fast_pskip=0 / chroma_qp_offset=-3 / threads=12 / lookahead_threads=2 / sliced_threads=0 / nr=0 / decimate=0 / interlaced=0 / bluray_compat=0 / constrained_intra=0 / bframes=8 / b_pyramid=2 / b_adapt=2 / b_bias=0 / direct=3 / weightb=1 / open_gop=0 / weightp=2 / keyint=240 / keyint_min=22 / scenecut=40 / intra_refresh=0 / rc=2pass / mbtree=0 / bitrate=8654 / ratetol=1.0 / qcomp=0.60 / qpmin=0 / qpmax=69 / qpstep=4 / cplxblur=20.0 / qblur=0.5 / ip_ratio=1.40 / pb_ratio=1.30 / aq=1:1.00
Default : Да
Forced : Нет
Аудио #1
Идентификатор : 2
Формат : AC-3
Формат/Информация : Audio Coding 3
Расширение режима : CM (complete main)
Идентификатор кодека : A_AC3
Продолжительность : 1 ч. 35 м.
Вид битрейта : Постоянный
Битрейт : 448 Кбит/сек
Каналы : 6 каналов
Расположение каналов : Front: L C R, Side: L R, LFE
Частота : 48,0 КГц
Битовая глубина : 16 бит
Метод сжатия : С потерями
Размер потока : 307 Мбайт (4%)
Заголовок : Многоголосый закадровый AC3
Язык : Russian
Default : Да
Forced : Да
Аудио #2
Идентификатор : 3
Формат : DTS
Формат/Информация : Digital Theater Systems
Идентификатор кодека : A_DTS
Продолжительность : 1 ч. 35 м.
Вид битрейта : Постоянный
Битрейт : 1510 Кбит/сек
Каналы : 6 каналов
Расположение каналов : Front: L C R, Side: L R, LFE
Частота : 48,0 КГц
Битовая глубина : 16 бит
Метод сжатия : С потерями
Размер потока : 1,01 Гбайт (14%)
Заголовок : Оригинал
Язык : English
Default : Нет
Forced : Нет
Текст #1
Идентификатор : 4
Формат : UTF-8
Идентификатор кодека : S_TEXT/UTF8
Идентификатор кодека/Информация : UTF-8 Plain Text
Язык : Russian
Default : Нет
Forced : Нет
Текст #2
Идентификатор : 5
Формат : UTF-8
Идентификатор кодека : S_TEXT/UTF8
Идентификатор кодека/Информация : UTF-8 Plain Text
Язык : English
Default : Нет
Forced : Нет
Меню
00:00:00.000 : en:The Story So Far
00:07:18.750 : en:International Sausage Smugglers
00:16:16.291 : en:Sight-seeing
00:23:05.750 : en:Dinner
00:31:13.250 : en:This City's Electric
00:39:30.666 : en:Brain Tumour
00:50:11.833 : en:Yoga Class
00:58:34.916 : en:X-Rated
01:05:51.083 : en:The Show
01:16:01.000 : en:Soul Instructions
01:24:10.916 : en:Central Park
01:29:55.083 : en:A Happy Ending
Скриншоты:
Время раздачи: с 10:00 до 20:00 (GMT+2) - до 15 скачавших

[Цитировать]



Показать сообщения:    

Текущее время: 04-Дек 21:18

Часовой пояс: UTC + 3


Вы не можете начинать темы
Вы не можете отвечать на сообщения
Вы не можете редактировать свои сообщения
Вы не можете удалять свои сообщения
Вы не можете голосовать в опросах
Вы не можете прикреплять файлы к сообщениям
Вы не можете скачивать файлы

!ВНИМАНИЕ!
Сайт не предоставляет электронные версии произведений, а занимается лишь коллекционированием и каталогизацией ссылок, присылаемых и публикуемых на форуме нашими читателями. Если вы являетесь правообладателем какого-либо представленного материала и не желаете, чтобы ссылка на него находилась в нашем каталоге, свяжитесь с нами, и мы незамедлительно удалим ее. Файлы для обмена на трекере предоставлены пользователями сайта, и администрация не несет ответственности за их содержание. Просьба не заливать файлы, защищенные авторскими правами, а также файлы нелегального содержания!