[ Сегодня идет свободное скачивание без начисления Download ]


Статистика раздачи
Нет
 
   
 
Top  
 
 
Короли улиц / Street Kings- Страна: США
Жанр: триллер, драма, криминал
Год выпуска: 2008
Продолжительность: 01:48:49-Перевод:
Профессиональный (полное дублирование)
Профессиональный (многоголосый, закадровый)
Авторский (одноголосый)
Одноголосый
Субтитры:
английские, русские,
Оригинальная аудиодорожка:
английский
Режиссер: Дэвид Эйр / David Ayer
В ролях:
Киану Ривз (Detective Tom Ludlow), Форест Уитакер (Captain Jack Wander), Хью Лори (Captain James Biggs), Крис Эванс (Detective Paul Diskant), Седрик 'Развлекатель' (Scribble), Джей Мор (Sgt. Mike Clady), Терри Крюс (Detective Terrence Washington), Наоми Харрис (Linda Washington), Коммон (Coates), Джейсон Тэйлор (Grill), Марта Игареда (Grace Garcia), Джон Корбетт (Detective Dante Demille)-Описание: Полицейский из Лос-Анджелеса ни разу в жизни не задумывался над тем, что его может ожидать за гранью собственного уютного мира. Однако со смертью любимой жены в его жизнь входит темная, беспощадная, отчаянная пустота. Ладлоу вынужден действовать, когда его же собственные друзья-соратники обвиняют его в убийстве. Так начинается борьба человека за свое место в мире, который все больше и больше контролируется внешними силами.-

MPAA: R - Лицам до 17 лет обязательно присутствие взрослого-Качество: BDRemux 1080p
Контейнер: MKV
Сэмпл
Видео: AVC, 1920x1080 (16:9), 33461 kbps, 23,976 fps
Аудио 1: английский / DTS-HD / 5.1 / 48 kHz / 3798 kbps / 24 bit (Core: 5.1 / 48 kHz / 1510 kbps / 24 bit)
Аудио 2: русский / DTS / 5.1 / 48 kHz / 755 kbps Dub BD
Аудио 3: русский / AC3 / 5.1 / 48 kHz / 448 kbps MVO Кравец
Аудио 4: русский / AC3 / 5.1 / 48 kHz / 448 kbps AVO Сербин
Аудио 5: русский / DTS / 5.1 / 48 kHz / 1510 kbps AVO Гаврилов
Аудио 6: русский / DTS / 5.1 / 48 kHz / 1510 kbps VO Макашов
Формат субтитров: prerendered (Blu-ray/PGS/SUP), softsub (SRT)
Навигация по главам: есть-

Скриншоты

Media Info

General
Unique ID : 228352557681863505618156508257953672188 (0xABCB1A55CC96709D82E75638D7C66BFC)
Complete name : Street Kings.mkv
Format : Matroska
Format version : Version 2
File size : 31.9 GiB
Duration : 1h 48mn
Overall bit rate mode : Variable
Overall bit rate : 42.0 Mbps
Encoded date : UTC 2012-11-12 21:51:19
Writing application : mkvmerge v5.7.0 ('The Whirlwind') built on Jul 8 2012 20:08:51
Writing library : libebml v1.2.3 + libmatroska v1.3.0
Video
ID : 1
Format : AVC
Format/Info : Advanced Video Codec
Format profile : [email protected]
Format settings, CABAC : Yes
Format settings, ReFrames : 4 frames
Muxing mode : Container [email protected]
Codec ID : V_MPEG4/ISO/AVC
Duration : 1h 48mn
Bit rate mode : Variable
Maximum bit rate : 38.0 Mbps
Width : 1 920 pixels
Height : 1 080 pixels
Display aspect ratio : 16:9
Frame rate mode : Constant
Frame rate : 23.976 fps
Color space : YUV
Chroma subsampling : 4:2:0
Bit depth : 8 bits
Scan type : Progressive
Default : Yes
Forced : No
Color primaries : BT.709
Transfer characteristics : BT.709
Matrix coefficients : BT.709
Audio #1
ID : 2
Format : DTS
Format/Info : Digital Theater Systems
Format profile : MA / Core
Mode : 16
Format settings, Endianness : Big
Codec ID : A_DTS
Duration : 1h 48mn
Bit rate mode : Variable
Bit rate : Unknown / 1 509 Kbps
Channel(s) : 6 channels
Channel positions : Front: L C R, Side: L R, LFE
Sampling rate : 48.0 KHz
Bit depth : 24 bits
Compression mode : Lossless / Lossy
Title : DTS-HD MA 3798kbps
Language : English
Default : No
Forced : No
Audio #2
ID : 3
Format : DTS
Format/Info : Digital Theater Systems
Mode : 16
Format settings, Endianness : Big
Codec ID : A_DTS
Duration : 1h 48mn
Bit rate mode : Constant
Bit rate : 768 Kbps
Channel(s) : 6 channels
Channel positions : Front: L C R, Side: L R, LFE
Sampling rate : 48.0 KHz
Bit depth : 24 bits
Compression mode : Lossy
Stream size : 598 MiB (2%)
Title : Dub BD 768kbps
Language : Russian
Default : No
Forced : No
Audio #3
ID : 4
Format : AC-3
Format/Info : Audio Coding 3
Mode extension : CM (complete main)
Format settings, Endianness : Big
Codec ID : A_AC3
Duration : 1h 48mn
Bit rate mode : Constant
Bit rate : 448 Kbps
Channel(s) : 6 channels
Channel positions : Front: L C R, Side: L R, LFE
Sampling rate : 48.0 KHz
Bit depth : 16 bits
Compression mode : Lossy
Stream size : 349 MiB (1%)
Title : MVO Кравец AC3 448kbps
Language : Russian
Default : No
Forced : No
Audio #4
ID : 5
Format : AC-3
Format/Info : Audio Coding 3
Mode extension : CM (complete main)
Format settings, Endianness : Big
Codec ID : A_AC3
Duration : 1h 48mn
Bit rate mode : Constant
Bit rate : 448 Kbps
Channel(s) : 6 channels
Channel positions : Front: L C R, Side: L R, LFE
Sampling rate : 48.0 KHz
Bit depth : 16 bits
Compression mode : Lossy
Stream size : 349 MiB (1%)
Title : Сербин AC3 448kbps
Language : Russian
Default : No
Forced : No
Audio #5
ID : 6
Format : DTS
Format/Info : Digital Theater Systems
Mode : 16
Format settings, Endianness : Big
Codec ID : A_DTS
Duration : 1h 48mn
Bit rate mode : Constant
Bit rate : 1 510 Kbps
Channel(s) : 6 channels
Channel positions : Front: L C R, Side: L R, LFE
Sampling rate : 48.0 KHz
Bit depth : 24 bits
Compression mode : Lossy
Stream size : 1.15 GiB (4%)
Title : Гаврилов DTS 1510kbps
Language : Russian
Default : No
Forced : No
Audio #6
ID : 7
Format : DTS
Format/Info : Digital Theater Systems
Mode : 16
Format settings, Endianness : Big
Codec ID : A_DTS
Duration : 1h 48mn
Bit rate mode : Constant
Bit rate : 1 510 Kbps
Channel(s) : 6 channels
Channel positions : Front: L C R, Side: L R, LFE
Sampling rate : 48.0 KHz
Bit depth : 24 bits
Compression mode : Lossy
Stream size : 1.15 GiB (4%)
Title : Макашов DTS 1510kbps
Language : Russian
Default : No
Forced : No
Text #1
ID : 8
Format : PGS
Muxing mode : zlib
Codec ID : S_HDMV/PGS
Codec ID/Info : The same subtitle format used on BDs/HD-DVDs
Title : PGS
Language : English
Default : No
Forced : No
Text #2
ID : 9
Format : PGS
Muxing mode : zlib
Codec ID : S_HDMV/PGS
Codec ID/Info : The same subtitle format used on BDs/HD-DVDs
Title : PGS forced (dub)
Language : Russian
Default : No
Forced : No
Text #3
ID : 10
Format : PGS
Muxing mode : zlib
Codec ID : S_HDMV/PGS
Codec ID/Info : The same subtitle format used on BDs/HD-DVDs
Title : PGS
Language : Russian
Default : No
Forced : No
Text #4
ID : 11
Format : UTF-8
Codec ID : S_TEXT/UTF8
Codec ID/Info : UTF-8 Plain Text
Title : BD
Language : English
Default : No
Forced : No
Text #5
ID : 12
Format : UTF-8
Codec ID : S_TEXT/UTF8
Codec ID/Info : UTF-8 Plain Text
Title : DVD SDH
Language : English
Default : No
Forced : No
Text #6
ID : 13
Format : UTF-8
Codec ID : S_TEXT/UTF8
Codec ID/Info : UTF-8 Plain Text
Title : BD forced (dub)
Language : Russian
Default : No
Forced : No
Text #7
ID : 14
Format : UTF-8
Codec ID : S_TEXT/UTF8
Codec ID/Info : UTF-8 Plain Text
Title : BD
Language : Russian
Default : No
Forced : No
Text #8
ID : 15
Format : UTF-8
Codec ID : S_TEXT/UTF8
Codec ID/Info : UTF-8 Plain Text
Title : Киномания (по дубляжу)
Language : Russian
Default : No
Forced : No
Menu
00:00:00.000 : en:Main Title / One Bad Day
00:04:02.367 : en:Blown Away
00:10:14.238 : en:LA's Deadliest White Boy
00:14:47.136 : en:A Cop Who Burns Cops
00:18:17.554 : en:Gates Of Hell
00:21:22.197 : en:Gangbangers
00:24:44.691 : en:Tip Of The Spear
00:28:44.974 : en:Bad Breeds Bad
00:30:09.974 : en:Got A Complaint?
00:34:26.314 : en:Two-Way Street
00:38:20.381 : en:Serious Overkill
00:41:17.850 : en:Kicked Loose
00:44:58.696 : en:Turn The Page
00:47:09.284 : en:Brown Sugar
00:50:13.218 : en:Not Quick Enough
00:54:22.550 : en:Third Strike
00:57:35.827 : en:Pariah
01:00:36.299 : en:A Rung In The Ladder
01:04:01.671 : en:Framed
01:07:32.673 : en:Not In My Name
01:11:08.889 : en:Gunfighters
01:15:26.688 : en:Who The Hell Are You?
01:22:26.942 : en:Giving Up The Big Dog
01:28:34.809 : en:Burying Himself
01:32:36.801 : en:King's X
01:35:54.582 : en:Correcting a Flaw
01:40:31.067 : en:No Other Outcome
01:42:49.163 : en:End Titles

[Цитировать]



Показать сообщения:    

Текущее время: 06-Дек 17:12

Часовой пояс: UTC + 3


Вы не можете начинать темы
Вы не можете отвечать на сообщения
Вы не можете редактировать свои сообщения
Вы не можете удалять свои сообщения
Вы не можете голосовать в опросах
Вы не можете прикреплять файлы к сообщениям
Вы не можете скачивать файлы

!ВНИМАНИЕ!
Сайт не предоставляет электронные версии произведений, а занимается лишь коллекционированием и каталогизацией ссылок, присылаемых и публикуемых на форуме нашими читателями. Если вы являетесь правообладателем какого-либо представленного материала и не желаете, чтобы ссылка на него находилась в нашем каталоге, свяжитесь с нами, и мы незамедлительно удалим ее. Файлы для обмена на трекере предоставлены пользователями сайта, и администрация не несет ответственности за их содержание. Просьба не заливать файлы, защищенные авторскими правами, а также файлы нелегального содержания!