[ Сегодня идет свободное скачивание без начисления Download ]


Статистика раздачи
Нет
 
   
 
Top  
 
 
Звездные войны: Сага
Star Wars: The Complete Saga-
-

Звездные войны: Эпизод 1 - Скрытая угроза

Звездные войны: Эпизод 1 - Скрытая угроза
Star Wars: Episode I - The Phantom Menace
Год выпуска: 1999
Страна: США
Жанр: фантастика, боевик, приключения
Продолжительность: 02:16:10
Перевод:
- профессиональный (полное дублирование, Blu-ray CEE)
- профессиональный (двухголосый закадровый, Tycoon)
Cубтитры: русские, английские
Режиссер: Джордж Лукас / George Lucas
В ролях: Лиам Нисон, Юэн МакГрегор, Натали Портман, Джейк Ллойд, Иэн МакДайармид, Пернилла Аугуст, Оливер Форд Дэвис, Хью Куарши, Ахмед Бест, Энтони Дэниелс, Сэмюэл Л. Джексон, София Коппола, Кира Найтли
Описание: Мирная и процветающая планета Набу. Торговая федерация, не желая платить налоги, вступает в прямой конфликт с королевой Амидалой, правящей на планете, что приводит к войне. На стороне королевы и республики в ней участвуют два рыцаря-джедая: учитель и ученик, Квай-Гон-Джин и Оби-Ван Кеноби…
Рейтинг MPAA: -Доп. информация:
IMDb: 6.4/10
Kinopoisk: 7.954/10
Sample-Качество: BDRip 720p
Формат: MKV
Видео кодек: H.264
Аудио кодек: AC3, AAC
Видео: 1280x548 (2.34:1), 3181 kbps, 23.976 fps
Аудио №1: Russian, AC3, 6ch, 48 kHz, 448 kbps (Дубляж, Blu-ray CEE)
Аудио №2: Russian, AC3, 6ch, 48 kHz, 448 kbps (Двухголосый, Tycoon)
Аудио №3: English, AC3, 6ch, 48 kHz, 448 kbps (Оригинал)
Аудио №4: English, AAC-LC, 2ch, 48 kHz, ~75 kbps (Комметарии №1 с Джорджем Лукасом, Риком МакКаллумом, Беном Берттом, Робом Коулманом, Джоном Ноллом, Дэннисом Муреном и Скоттом Скуайерсом)
Аудио №5: English, AAC-LC, 2ch, 48 kHz, ~77 kbps (Комметарии №2 из архивных интервью с актерами и создателями фильма)
Субтитры №1: Russian, SRT, форсированные
Субтитры №2: Russian, SRT, полные, Blu-ray CEE
Субтитры №3: Russian, SRT, полные, Tycoon
Субтитры №4: Russian, SRT, комментарии №1
Субтитры №5: Russian, SRT, комментарии №2
Субтитры №6: English, SRT, форсированные
Субтитры №7: English, SRT, полные
Субтитры №8: English, SRT, комментарии №1
Субтитры №9: English, SRT, комментарии №2-

MediaInfo

Format : Matroska
Format version : Version 2
File size : 4.38 GiB
Duration : 2h 16mn
Overall bit rate : 4 601 Kbps
Movie name : Star Wars: Episode I - The Phantom Menace (1999) BDRip
Encoded date : UTC 2012-05-29 10:53:04
Writing application : mkvmerge v5.6.0 ('Kenya Kane') built on May 27 2012 16:44:04
Writing library : libebml v1.2.3 + libmatroska v1.3.0
Attachment : Yes
Video
ID : 1
Format : AVC
Format/Info : Advanced Video Codec
Format profile : [email protected]
Format settings, CABAC : Yes
Format settings, ReFrames : 11 frames
Codec ID : V_MPEG4/ISO/AVC
Duration : 2h 16mn
Width : 1 280 pixels
Height : 548 pixels
Display aspect ratio : 2.35:1
Frame rate : 23.976 fps
Color space : YUV
Chroma subsampling : 4:2:0
Bit depth : 8 bits
Scan type : Progressive
Writing library : x264 core 124 r2197kMod 69a0443
Encoding settings : cabac=1 / ref=11 / deblock=1:-3:-2 / analyse=0x3:0x133 / me=umh / subme=11 / psy=1 / fade_compensate=0.90 / psy_rd=1.00:0.03 / mixed_ref=1 / me_range=32 / chroma_me=1 / trellis=2 / 8x8dct=1 / cqm=0 / deadzone=21,11 / fast_pskip=0 / chroma_qp_offset=-3 / threads=6 / sliced_threads=0 / nr=0 / decimate=1 / interlaced=0 / bluray_compat=0 / constrained_intra=0 / bframes=14 / b_pyramid=2 / b_adapt=2 / b_bias=0 / direct=1 / weightb=1 / open_gop=0 / weightp=2 / keyint=250 / keyint_min=23 / scenecut=40 / intra_refresh=0 / rc_lookahead=120 / rc=crf / mbtree=1 / crf=17.4000 / qcomp=0.70 / qpmin=0 / qpmax=69 / qpstep=4 / ip_ratio=1.20 / aq=3:0.75 / zones=24805,26910,b=1.5/27795,30000,b=1.5
Language : English
Default : Yes
Forced : No
Matrix coefficients : BT.709-5, BT.1361, IEC 61966-2-4 709, SMPTE RP177
Audio #1
ID : 2
Format : AC-3
Format/Info : Audio Coding 3
Mode extension : CM (complete main)
Codec ID : A_AC3
Duration : 2h 16mn
Bit rate mode : Constant
Bit rate : 448 Kbps
Channel(s) : 6 channels
Channel positions : Front: L C R, Side: L R, LFE
Sampling rate : 48.0 KHz
Bit depth : 16 bits
Compression mode : Lossy
Stream size : 436 MiB (10%)
Title : Dub (Blu-ray CEE)
Default : Yes
Forced : No
Audio #2
ID : 3
Format : AC-3
Format/Info : Audio Coding 3
Mode extension : CM (complete main)
Codec ID : A_AC3
Duration : 2h 16mn
Bit rate mode : Constant
Bit rate : 448 Kbps
Channel(s) : 6 channels
Channel positions : Front: L C R, Side: L R, LFE
Sampling rate : 48.0 KHz
Bit depth : 16 bits
Compression mode : Lossy
Stream size : 436 MiB (10%)
Title : DVO (Tycoon)
Language : Russian
Default : No
Forced : No
Audio #3
ID : 4
Format : AC-3
Format/Info : Audio Coding 3
Mode extension : CM (complete main)
Codec ID : A_AC3
Duration : 2h 16mn
Bit rate mode : Constant
Bit rate : 448 Kbps
Channel(s) : 6 channels
Channel positions : Front: L C R, Side: L R, LFE
Sampling rate : 48.0 KHz
Bit depth : 16 bits
Compression mode : Lossy
Stream size : 436 MiB (10%)
Title : Original
Language : English
Default : No
Forced : No
Audio #4
ID : 5
Format : AAC
Format/Info : Advanced Audio Codec
Format profile : LC
Codec ID : A_AAC
Duration : 2h 16mn
Channel(s) : 2 channels
Channel positions : Front: L R
Sampling rate : 48.0 KHz
Compression mode : Lossy
Delay relative to video : 9ms
Title : Commentary #1 (George Lucas, Rick McCallum, Ben Burtt, Rob Coleman, John Knoll, Dennis Muren, Scott Squires)
Language : English
Default : No
Forced : No
Audio #5
ID : 6
Format : AAC
Format/Info : Advanced Audio Codec
Format profile : LC
Codec ID : A_AAC
Duration : 2h 16mn
Channel(s) : 2 channels
Channel positions : Front: L R
Sampling rate : 48.0 KHz
Compression mode : Lossy
Delay relative to video : 9ms
Title : Commentary #2 (Archival Interviews with Cast and Crew)
Language : English
Default : No
Forced : No
Text #1
ID : 7
Format : UTF-8
Codec ID : S_TEXT/UTF8
Codec ID/Info : UTF-8 Plain Text
Title : Forced
Language : Russian
Default : Yes
Forced : No
Text #2
ID : 8
Format : UTF-8
Codec ID : S_TEXT/UTF8
Codec ID/Info : UTF-8 Plain Text
Title : Full (Blu-ray CEE)
Language : Russian
Default : No
Forced : No
Text #3
ID : 9
Format : UTF-8
Codec ID : S_TEXT/UTF8
Codec ID/Info : UTF-8 Plain Text
Title : Full (Tycoon)
Language : Russian
Default : No
Forced : No
Text #4
ID : 10
Format : UTF-8
Codec ID : S_TEXT/UTF8
Codec ID/Info : UTF-8 Plain Text
Title : Commentary #1
Language : Russian
Default : No
Forced : No
Text #5
ID : 11
Format : UTF-8
Codec ID : S_TEXT/UTF8
Codec ID/Info : UTF-8 Plain Text
Title : Commentary #2
Language : Russian
Default : No
Forced : No
Text #6
ID : 12
Format : UTF-8
Codec ID : S_TEXT/UTF8
Codec ID/Info : UTF-8 Plain Text
Title : Forced
Language : English
Default : No
Forced : No
Text #7
ID : 13
Format : UTF-8
Codec ID : S_TEXT/UTF8
Codec ID/Info : UTF-8 Plain Text
Title : Full
Language : English
Default : No
Forced : No
Text #8
ID : 14
Format : UTF-8
Codec ID : S_TEXT/UTF8
Codec ID/Info : UTF-8 Plain Text
Title : Commentary #1
Language : English
Default : No
Forced : No
Text #9
ID : 15
Format : UTF-8
Codec ID : S_TEXT/UTF8
Codec ID/Info : UTF-8 Plain Text
Title : Commentary #2
Language : English
Default : No
Forced : No
Menu
00:00:00.000 : en:Opening Logos
00:00:21.104 : en:Queen Amidala
00:01:52.738 : en:The Phantom Menace
00:07:55.350 : en:Short Negotiations
00:09:55.970 : en:Landing on Naboo
00:11:18.761 : en:Jar Jar Binks
00:13:24.178 : en:The Planet Core
00:14:49.806 : en:Otoh Gunga
00:17:14.242 : en:Boss Nass
00:20:40.948 : en:Invasion of Theed
00:22:25.302 : en:Surprise Rescue
00:25:12.886 : en:Watto's Shop
00:29:32.813 : en:Running the Blockade
00:31:41.483 : en:Tatooine
00:35:51.733 : en:Fateful Meetings
00:40:48.571 : en:Dinner Conversation
00:44:16.320 : en:Meet the Podracers
00:52:04.580 : en:Preparing for the Race
00:55:03.842 : en:A Wager With Watto
00:58:27.921 : en:Begin the Race
01:02:27.702 : en:Lap Two
01:05:33.012 : en:Choosing a New Path
01:10:06.911 : en:Home Stretch
01:11:17.940 : en:Collecting the Prize
01:16:20.951 : en:Darth Maul Attacks
01:18:08.100 : en:The Queen's Worries
01:20:26.363 : en:Senate Session
01:24:18.178 : en:Arrival on Coruscant
01:26:44.783 : en:The Jedi Council
01:29:54.723 : en:Testing Anakin
01:31:02.415 : en:Palpatine's Nomination
01:33:08.541 : en:A Plea to the Gungans
01:37:21.419 : en:Anakin's Future
01:39:06.315 : en:The Queen's Gambit
01:42:33.731 : en:Battle Plans
01:44:41.567 : en:'Wipe Them Out'
01:46:19.248 : en:Duel of the Fates
01:48:07.731 : en:Retaking the Palace
01:50:24.952 : en:The Conflict Continues
01:56:47.667 : en:Gungan Retreat
01:59:13.063 : en:Qui-Gon vs. Darth Maul
02:00:31.391 : en:Control Ship Destroyed
02:01:21.316 : en:Capturing the Viceroy
02:02:23.378 : en:Obi-Wan vs. Darth Maul
02:03:56.971 : en:A Sith Vanquished
02:05:15.133 : en:Chancellor Palpatine Arrives
02:06:25.995 : en:Naboo Celebration
02:07:23.177 : en:New Knight New Apprentice
02:08:28.993 : en:Farewell to a Jedi
02:09:53.536 : en:End Credits

x264 log

x264 [info]: frame I:1684 Avg QP:14.95 size:109271 PSNR Mean Y:48.59 U:52.04 V:52.35 Avg:49.48 Global:49.14
x264 [info]: frame P:44497 Avg QP:17.45 size: 34491 PSNR Mean Y:46.85 U:50.51 V:50.82 Avg:47.76 Global:47.32
x264 [info]: frame B:149724 Avg QP:20.68 size: 10219 PSNR Mean Y:46.18 U:50.25 V:50.49 Avg:47.14 Global:46.55
x264 [info]: consecutive B-frames: 3.0% 2.8% 7.9% 21.7% 19.1% 38.5% 3.8% 1.1% 0.6% 0.3% 0.1% 0.2% 0.1% 0.3% 0.6%
-
-

Звездные войны: Эпизод 2 - Атака клонов

Звездные войны: Эпизод 2 - Атака клонов
Star Wars: Episode II - Attack of the Clones
Год выпуска: 2002
Страна: США
Жанр: фантастика, боевик, приключения
Продолжительность: 02:16:10
Перевод:
- профессиональный (полное дублирование, Blu-ray CEE)
- профессиональный (двухголосый закадровый, Tycoon)
Cубтитры: русские, английские
Режиссер: Джордж Лукас / George Lucas
В ролях: Юэн МакГрегор, Натали Портман, Хейден Кристенсен, Кристофер Ли, Сэмюэл Л. Джексон, Фрэнк Оз, Иэн МакДайармид, Пернилла Аугуст, Темуэра Моррисон, Дэниэл Логан
Описание: Действие разворачивается через 10 лет после событий, описанных в первом эпизоде знаменитой саги. Республика все глубже погружается в пучину противоречий и хаоса. Движение сепаратистов, представленное сотнями планет и могущественным альянсом корпораций, грозит стать новой угрозой для Галактики, с которой не смогут справиться даже джедаи.
Назревающий конфликт, заранее спланированный могущественными, но пока еще не разоблаченными силами, ведет к началу Клонических войн и к закату республики. Чтобы противостоять угрозе вселенских масштабов, Верховный канцлер Палпатин добивается консолидации власти в республике в своих руках и отдает приказ о создании республиканской армии для поддержки малочисленной группы джедаев в их борьбе с превосходящим противником.
Рейтинг MPAA: -Доп. информация:
IMDb: 6.7/10
Kinopoisk: 7.829/10
Sample-Качество: BDRip 720p
Формат: MKV
Видео кодек: H.264
Аудио кодек: AC3, AAC
Видео: 1280x548 (2.34:1), 2908 kbps, 23.976 fps
Аудио №1: Russian, AC3, 6ch, 48 kHz, 448 kbps (Дубляж, Blu-ray CEE)
Аудио №2: Russian, AC3, 6ch, 48 kHz, 448 kbps (Двухголосый, Tycoon)
Аудио №3: English, AC3, 6ch, 48 kHz, 448 kbps (Оригинал)
Аудио №4: English, AAC-LC, 2ch, 48 kHz, ~72 kbps (Комметарии №1 с Джорджем Лукасом, Риком МакКаллумом, Беном Берттом, Робом Коулманом, Пабло Хельманом, Джоном Ноллом и Беном Сноу)
Аудио №5: English, AAC-LC, 2ch, 48 kHz, ~75 kbps (Комметарии №2 из архивных интервью с актерами и создателями фильма)
Субтитры №1: Russian, SRT, форсированные
Субтитры №2: Russian, SRT, полные, Blu-ray CEE
Субтитры №3: Russian, SRT, полные, Tycoon
Субтитры №4: Russian, SRT, комментарии №1
Субтитры №5: Russian, SRT, комментарии №2
Субтитры №6: English, SRT, форсированные
Субтитры №7: English, SRT, полные
Субтитры №8: English, SRT, комментарии №1
Субтитры №9: English, SRT, комментарии №2-

MediaInfo

Format : Matroska
Format version : Version 2
File size : 4.37 GiB
Duration : 2h 22mn
Overall bit rate : 4 389 Kbps
Movie name : Star Wars: Episode II - Attack of the Clones (2002) BDRip
Encoded date : UTC 2012-05-29 13:56:57
Writing application : mkvmerge v5.6.0 ('Kenya Kane') built on May 27 2012 16:44:04
Writing library : libebml v1.2.3 + libmatroska v1.3.0
Attachment : Yes
Video
ID : 1
Format : AVC
Format/Info : Advanced Video Codec
Format profile : [email protected]
Format settings, CABAC : Yes
Format settings, ReFrames : 11 frames
Codec ID : V_MPEG4/ISO/AVC
Duration : 2h 22mn
Width : 1 280 pixels
Height : 548 pixels
Display aspect ratio : 2.35:1
Frame rate : 23.976 fps
Color space : YUV
Chroma subsampling : 4:2:0
Bit depth : 8 bits
Scan type : Progressive
Writing library : x264 core 124 r2197kMod 69a0443
Encoding settings : cabac=1 / ref=11 / deblock=1:-3:-2 / analyse=0x3:0x133 / me=umh / subme=11 / psy=1 / fade_compensate=0.90 / psy_rd=1.00:0.03 / mixed_ref=1 / me_range=32 / chroma_me=1 / trellis=2 / 8x8dct=1 / cqm=0 / deadzone=21,11 / fast_pskip=0 / chroma_qp_offset=-3 / threads=6 / sliced_threads=0 / nr=0 / decimate=1 / interlaced=0 / bluray_compat=0 / constrained_intra=0 / bframes=14 / b_pyramid=2 / b_adapt=2 / b_bias=0 / direct=1 / weightb=1 / open_gop=0 / weightp=2 / keyint=250 / keyint_min=23 / scenecut=40 / intra_refresh=0 / rc_lookahead=120 / rc=crf / mbtree=1 / crf=16.3000 / qcomp=0.70 / qpmin=0 / qpmax=69 / qpstep=4 / ip_ratio=1.20 / aq=3:0.75
Language : English
Default : Yes
Forced : No
Matrix coefficients : BT.709-5, BT.1361, IEC 61966-2-4 709, SMPTE RP177
Audio #1
ID : 2
Format : AC-3
Format/Info : Audio Coding 3
Mode extension : CM (complete main)
Codec ID : A_AC3
Duration : 2h 22mn
Bit rate mode : Constant
Bit rate : 448 Kbps
Channel(s) : 6 channels
Channel positions : Front: L C R, Side: L R, LFE
Sampling rate : 48.0 KHz
Bit depth : 16 bits
Compression mode : Lossy
Stream size : 457 MiB (10%)
Title : Dub (Blu-ray CEE)
Language : Russian
Default : Yes
Forced : No
Audio #2
ID : 3
Format : AC-3
Format/Info : Audio Coding 3
Mode extension : CM (complete main)
Codec ID : A_AC3
Duration : 2h 22mn
Bit rate mode : Constant
Bit rate : 448 Kbps
Channel(s) : 6 channels
Channel positions : Front: L C R, Side: L R, LFE
Sampling rate : 48.0 KHz
Bit depth : 16 bits
Compression mode : Lossy
Stream size : 457 MiB (10%)
Title : DVO (Tycoon)
Language : Russian
Default : No
Forced : No
Audio #3
ID : 4
Format : AC-3
Format/Info : Audio Coding 3
Mode extension : CM (complete main)
Codec ID : A_AC3
Duration : 2h 22mn
Bit rate mode : Constant
Bit rate : 448 Kbps
Channel(s) : 6 channels
Channel positions : Front: L C R, Side: L R, LFE
Sampling rate : 48.0 KHz
Bit depth : 16 bits
Compression mode : Lossy
Stream size : 457 MiB (10%)
Title : Original
Language : English
Default : No
Forced : No
Audio #4
ID : 5
Format : AAC
Format/Info : Advanced Audio Codec
Format profile : LC
Codec ID : A_AAC
Duration : 2h 22mn
Channel(s) : 2 channels
Channel positions : Front: L R
Sampling rate : 48.0 KHz
Compression mode : Lossy
Delay relative to video : 9ms
Title : Commentary #1 (George Lucas, Rick McCallum, Ben Burtt, Rob Coleman, John Knoll, Dennis Muren, Scott Squires)
Language : English
Default : No
Forced : No
Audio #5
ID : 6
Format : AAC
Format/Info : Advanced Audio Codec
Format profile : LC
Codec ID : A_AAC
Duration : 2h 22mn
Channel(s) : 2 channels
Channel positions : Front: L R
Sampling rate : 48.0 KHz
Compression mode : Lossy
Delay relative to video : 9ms
Title : Commentary #2 (Archival Interviews with Cast and Crew)
Language : English
Default : No
Forced : No
Text #1
ID : 7
Format : UTF-8
Codec ID : S_TEXT/UTF8
Codec ID/Info : UTF-8 Plain Text
Title : Forced
Language : Russian
Default : Yes
Forced : No
Text #2
ID : 8
Format : UTF-8
Codec ID : S_TEXT/UTF8
Codec ID/Info : UTF-8 Plain Text
Title : Full (Blu-ray CEE)
Language : Russian
Default : No
Forced : No
Text #3
ID : 9
Format : UTF-8
Codec ID : S_TEXT/UTF8
Codec ID/Info : UTF-8 Plain Text
Title : Full (Tycoon)
Language : Russian
Default : No
Forced : No
Text #4
ID : 10
Format : UTF-8
Codec ID : S_TEXT/UTF8
Codec ID/Info : UTF-8 Plain Text
Title : Commentary #1
Language : Russian
Default : No
Forced : No
Text #5
ID : 11
Format : UTF-8
Codec ID : S_TEXT/UTF8
Codec ID/Info : UTF-8 Plain Text
Title : Commentary #2
Language : Russian
Default : No
Forced : No
Text #6
ID : 12
Format : UTF-8
Codec ID : S_TEXT/UTF8
Codec ID/Info : UTF-8 Plain Text
Title : Forced
Language : English
Default : No
Forced : No
Text #7
ID : 13
Format : UTF-8
Codec ID : S_TEXT/UTF8
Codec ID/Info : UTF-8 Plain Text
Title : Full
Language : English
Default : No
Forced : No
Text #8
ID : 14
Format : UTF-8
Codec ID : S_TEXT/UTF8
Codec ID/Info : UTF-8 Plain Text
Title : Commentary #1
Language : English
Default : No
Forced : No
Text #9
ID : 15
Format : UTF-8
Codec ID : S_TEXT/UTF8
Codec ID/Info : UTF-8 Plain Text
Title : Commentary #2
Language : English
Default : No
Forced : No
Menu
00:00:00.000 : en:Opening Logos
00:00:23.440 : en:Attack of the Clones
00:01:50.527 : en:Return to Coruscant
00:04:22.095 : en:Chancellor's Meeting
00:07:00.003 : en:Old Friends
00:10:28.962 : en:Assassins
00:14:19.901 : en:Speeder Chase
00:21:35.294 : en:Into the Club
00:24:48.237 : en:New Assignments
00:29:45.867 : en:Traveling Incognito
00:31:33.475 : en:Dex's Diner
00:33:48.526 : en:Jedi Archives
00:34:50.505 : en:"Encouraged to Love"
00:36:05.121 : en:Yoda and the Younglings
00:38:25.929 : en:Return to Naboo
00:39:25.363 : en:Audience With the Queen
00:40:56.371 : en:Kamino Arrival
00:42:12.780 : en:Meeting Lama Su
00:44:02.014 : en:Stolen Kiss
00:45:50.414 : en:Inspecting the Clones
00:47:50.076 : en:Teasing a Senator
00:50:21.018 : en:Jango's Apartment
00:53:01.428 : en:Forbidden Love
00:56:44.818 : en:Obi-Wan's Report
00:58:56.700 : en:Nightmare
01:00:46.059 : en:Obi-Wan vs. Jango
01:03:41.192 : en:Back to Tatooine
01:06:24.355 : en:Asteroid Chase
01:11:18.774 : en:Lars' Homestead
01:14:01.354 : en:Anakin's Search
01:15:23.477 : en:Dooku's Separatist Plot
01:17:48.873 : en:Tusken Camp
01:21:40.354 : en:Out of Range
01:23:46.897 : en:"You're Not All-Powerful"
01:28:10.160 : en:Enemies Revealed
01:30:52.906 : en:Obi-Wan Captive
01:33:38.488 : en:Emergency Powers
01:35:27.847 : en:Droid Factory
01:42:44.867 : en:Love Pledge
01:45:14.016 : en:The Arena
01:49:53.629 : en:"This Party Is Over"
01:56:22.475 : en:Yoda's Cavalry
01:57:47.602 : en:Clone War
02:00:29.180 : en:War Room
02:04:48.981 : en:Duel With Dooku
02:07:41.946 : en:Master Yoda
02:11:23.667 : en:"Well Done Lord Tyranus"
02:12:54.884 : en:"Begun, the Clone War Has"
02:14:49.248 : en:Secret Union
02:15:54.938 : en:End Credits

x264 log

x264 [info]: frame I:1524 Avg QP:12.99 size:102883 PSNR Mean Y:50.94 U:53.03 V:53.15 Avg:51.53 Global:51.27
x264 [info]: frame P:51832 Avg QP:15.56 size: 31087 PSNR Mean Y:49.06 U:51.08 V:51.20 Avg:49.63 Global:49.28
x264 [info]: frame B:151587 Avg QP:19.68 size: 8832 PSNR Mean Y:48.41 U:50.71 V:50.78 Avg:49.03 Global:48.59
x264 [info]: consecutive B-frames: 2.8% 3.3% 21.4% 23.7% 18.6% 25.1% 2.3% 1.1% 0.7% 0.3% 0.2% 0.1% 0.1% 0.1% 0.2%
-
-

Звездные войны: Эпизод 3 - Месть Ситхов

Звездные войны: Эпизод 3 - Месть Ситхов
Star Wars: Episode III - Revenge of the Sith
Год выпуска: 2005
Страна: США
Жанр: фантастика, боевик, приключения
Продолжительность: 02:20:05
Перевод:
- профессиональный (полное дублирование, Blu-ray CEE)
- профессиональный (двухголосый закадровый, Tycoon)
Cубтитры: русские, английские
Режиссер: Джордж Лукас / George Lucas
В ролях: Юэн МакГрегор, Натали Портман, Хейден Кристенсен, Иэн МакДайармид, Сэмюэл Л. Джексон, Джимми Смитс, Фрэнк Оз, Энтони Дэниелс, Кристофер Ли, Киша Касл-Хьюз
Описание: Со времен, описанных во втором эпизоде, прошло 3 года. Энакин окончательно встает на темную сторону силы и превращается в Дарта Вейдера. Республика гибнет под ударами крепнущей Конфедерации, Джедаи теряют контроль над галактикой, а Падме готовится к тому, чтобы стать матерью. Все эти события будут разворачиваться на фоне грандиозной битвы, знаменующей финал Клонических войн…
Рейтинг MPAA: -Доп. информация:
IMDb: 7.7/10
Kinopoisk: 8.056/10, Top 250: #226
Sample-Качество: BDRip 720p
Формат: MKV
Видео кодек: H.264
Аудио кодек: AC3, AAC
Видео: 1280x548 (2.34:1), 2974 kbps, 23.976 fps
Аудио №1: Russian, AC3, 6ch, 48 kHz, 448 kbps (Дубляж, Blu-ray CEE)
Аудио №2: Russian, AC3, 6ch, 48 kHz, 448 kbps (Двухголосый, Tycoon)
Аудио №3: English, AC3, 6ch, 48 kHz, 448 kbps (Оригинал)
Аудио №4: English, AAC-LC, 2ch, 48 kHz, ~76 kbps (Комметарии №1 с Джорджем Лукасом, Риком МакКаллумом, Робом Коулманом, Джоном Ноллом и Роджером Гайеттом)
Аудио №5: English, AAC-LC, 2ch, 48 kHz, ~75 kbps (Комметарии №2 из архивных интервью с актерами и создателями фильма)
Субтитры №1: Russian, SRT, форсированные
Субтитры №2: Russian, SRT, полные, Blu-ray CEE
Субтитры №3: Russian, SRT, полные, Tycoon
Субтитры №4: Russian, SRT, комментарии №1
Субтитры №5: Russian, SRT, комментарии №2
Субтитры №6: English, SRT, полные
Субтитры №7: English, SRT, комментарии №1
Субтитры №8: English, SRT, комментарии №2-

MediaInfo

Format : Matroska
Format version : Version 2
File size : 4.37 GiB
Duration : 2h 20mn
Overall bit rate : 4 470 Kbps
Movie name : Star Wars: Episode III - Revenge of the Sith (2005) BDRip
Encoded date : UTC 2012-05-29 11:31:57
Writing application : mkvmerge v5.6.0 ('Kenya Kane') built on May 27 2012 16:44:04
Writing library : libebml v1.2.3 + libmatroska v1.3.0
Attachment : Yes
Video
ID : 1
Format : AVC
Format/Info : Advanced Video Codec
Format profile : [email protected]
Format settings, CABAC : Yes
Format settings, ReFrames : 11 frames
Codec ID : V_MPEG4/ISO/AVC
Duration : 2h 20mn
Width : 1 280 pixels
Height : 548 pixels
Display aspect ratio : 2.35:1
Frame rate : 23.976 fps
Color space : YUV
Chroma subsampling : 4:2:0
Bit depth : 8 bits
Scan type : Progressive
Writing library : x264 core 124 r2197kMod 69a0443
Encoding settings : cabac=1 / ref=11 / deblock=1:-3:-2 / analyse=0x3:0x133 / me=umh / subme=11 / psy=1 / fade_compensate=0.90 / psy_rd=0.90:0.04 / mixed_ref=1 / me_range=32 / chroma_me=1 / trellis=2 / 8x8dct=1 / cqm=0 / deadzone=21,11 / fast_pskip=0 / chroma_qp_offset=-3 / threads=6 / sliced_threads=0 / nr=0 / decimate=1 / interlaced=0 / bluray_compat=0 / constrained_intra=0 / bframes=14 / b_pyramid=2 / b_adapt=2 / b_bias=0 / direct=1 / weightb=1 / open_gop=0 / weightp=2 / keyint=250 / keyint_min=23 / scenecut=40 / intra_refresh=0 / rc_lookahead=120 / rc=crf / mbtree=1 / crf=19.5000 / qcomp=0.75 / qpmin=0 / qpmax=69 / qpstep=4 / ip_ratio=1.20 / aq=3:0.85
Language : English
Default : Yes
Forced : No
Matrix coefficients : BT.709-5, BT.1361, IEC 61966-2-4 709, SMPTE RP177
Audio #1
ID : 2
Format : AC-3
Format/Info : Audio Coding 3
Mode extension : CM (complete main)
Codec ID : A_AC3
Duration : 2h 20mn
Bit rate mode : Constant
Bit rate : 448 Kbps
Channel(s) : 6 channels
Channel positions : Front: L C R, Side: L R, LFE
Sampling rate : 48.0 KHz
Bit depth : 16 bits
Compression mode : Lossy
Stream size : 449 MiB (10%)
Title : Dub (Blu-ray CEE)
Language : Russian
Default : Yes
Forced : No
Audio #2
ID : 3
Format : AC-3
Format/Info : Audio Coding 3
Mode extension : CM (complete main)
Codec ID : A_AC3
Duration : 2h 20mn
Bit rate mode : Constant
Bit rate : 448 Kbps
Channel(s) : 6 channels
Channel positions : Front: L C R, Side: L R, LFE
Sampling rate : 48.0 KHz
Bit depth : 16 bits
Compression mode : Lossy
Stream size : 449 MiB (10%)
Title : DVO (Tycoon)
Language : Russian
Default : No
Forced : No
Audio #3
ID : 4
Format : AC-3
Format/Info : Audio Coding 3
Mode extension : CM (complete main)
Codec ID : A_AC3
Duration : 2h 20mn
Bit rate mode : Constant
Bit rate : 448 Kbps
Channel(s) : 6 channels
Channel positions : Front: L C R, Side: L R, LFE
Sampling rate : 48.0 KHz
Bit depth : 16 bits
Compression mode : Lossy
Stream size : 449 MiB (10%)
Title : Original
Language : English
Default : No
Forced : No
Audio #4
ID : 5
Format : AAC
Format/Info : Advanced Audio Codec
Format profile : LC
Codec ID : A_AAC
Duration : 2h 20mn
Channel(s) : 2 channels
Channel positions : Front: L R
Sampling rate : 48.0 KHz
Compression mode : Lossy
Delay relative to video : 9ms
Title : Commentary #1 (George Lucas, Rick McCallum, Rob Coleman, John Knoll, Roger Guyett)
Language : English
Default : No
Forced : No
Audio #5
ID : 6
Format : AAC
Format/Info : Advanced Audio Codec
Format profile : LC
Codec ID : A_AAC
Duration : 2h 20mn
Channel(s) : 2 channels
Channel positions : Front: L R
Sampling rate : 48.0 KHz
Compression mode : Lossy
Delay relative to video : 9ms
Title : Commentary #1 (Archival Interviews with Cast and Crew)
Language : English
Default : No
Forced : No
Text #1
ID : 7
Format : UTF-8
Codec ID : S_TEXT/UTF8
Codec ID/Info : UTF-8 Plain Text
Title : Forced
Language : Russian
Default : Yes
Forced : No
Text #2
ID : 8
Format : UTF-8
Codec ID : S_TEXT/UTF8
Codec ID/Info : UTF-8 Plain Text
Title : Full (Blu-ray CEE)
Language : Russian
Default : No
Forced : No
Text #3
ID : 9
Format : UTF-8
Codec ID : S_TEXT/UTF8
Codec ID/Info : UTF-8 Plain Text
Title : Full (Tycoon)
Language : Russian
Default : No
Forced : No
Text #4
ID : 10
Format : UTF-8
Codec ID : S_TEXT/UTF8
Codec ID/Info : UTF-8 Plain Text
Title : Commentary #1
Language : Russian
Default : No
Forced : No
Text #5
ID : 11
Format : UTF-8
Codec ID : S_TEXT/UTF8
Codec ID/Info : UTF-8 Plain Text
Title : Commentary #2
Language : Russian
Default : No
Forced : No
Text #6
ID : 12
Format : UTF-8
Codec ID : S_TEXT/UTF8
Codec ID/Info : UTF-8 Plain Text
Title : Full
Language : English
Default : No
Forced : No
Text #7
ID : 13
Format : UTF-8
Codec ID : S_TEXT/UTF8
Codec ID/Info : UTF-8 Plain Text
Title : Commentary #1
Language : English
Default : No
Forced : No
Text #8
ID : 14
Format : UTF-8
Codec ID : S_TEXT/UTF8
Codec ID/Info : UTF-8 Plain Text
Title : Commentary #2
Language : English
Default : No
Forced : No
Menu
00:00:00.000 : en:Opening Logos
00:00:23.440 : en:Attack of the Clones
00:01:50.527 : en:Return to Coruscant
00:04:22.095 : en:Chancellor's Meeting
00:07:00.003 : en:Old Friends
00:10:28.962 : en:Assassins
00:14:19.901 : en:Speeder Chase
00:21:35.294 : en:Into the Club
00:24:48.237 : en:New Assignments
00:29:45.867 : en:Traveling Incognito
00:31:33.475 : en:Dex's Diner
00:33:48.526 : en:Jedi Archives
00:34:50.505 : en:"Encouraged to Love"
00:36:05.121 : en:Yoda and the Younglings
00:38:25.929 : en:Return to Naboo
00:39:25.363 : en:Audience With the Queen
00:40:56.371 : en:Kamino Arrival
00:42:12.780 : en:Meeting Lama Su
00:44:02.014 : en:Stolen Kiss
00:45:50.414 : en:Inspecting the Clones
00:47:50.076 : en:Teasing a Senator
00:50:21.018 : en:Jango's Apartment
00:53:01.428 : en:Forbidden Love
00:56:44.818 : en:Obi-Wan's Report
00:58:56.700 : en:Nightmare
01:00:46.059 : en:Obi-Wan vs. Jango
01:03:41.192 : en:Back to Tatooine
01:06:24.355 : en:Asteroid Chase
01:11:18.774 : en:Lars' Homestead
01:14:01.354 : en:Anakin's Search
01:15:23.477 : en:Dooku's Separatist Plot
01:17:48.873 : en:Tusken Camp
01:21:40.354 : en:Out of Range
01:23:46.897 : en:"You're Not All-Powerful"
01:28:10.160 : en:Enemies Revealed
01:30:52.906 : en:Obi-Wan Captive
01:33:38.488 : en:Emergency Powers
01:35:27.847 : en:Droid Factory
01:42:44.867 : en:Love Pledge
01:45:14.016 : en:The Arena
01:49:53.629 : en:"This Party Is Over"
01:56:22.475 : en:Yoda's Cavalry
01:57:47.602 : en:Clone War
02:00:29.180 : en:War Room
02:04:48.981 : en:Duel With Dooku
02:07:41.946 : en:Master Yoda
02:11:23.667 : en:"Well Done Lord Tyranus"
02:12:54.884 : en:"Begun, the Clone War Has"
02:14:49.248 : en:Secret Union
02:15:54.938 : en:End Credits

x264 log

x264 [info]: frame I:1486 Avg QP:17.02 size: 91320 PSNR Mean Y:46.66 U:50.07 V:50.44 Avg:47.53 Global:47.20
x264 [info]: frame P:45028 Avg QP:19.48 size: 30571 PSNR Mean Y:44.94 U:48.80 V:49.13 Avg:45.88 Global:45.44
x264 [info]: frame B:155024 Avg QP:21.71 size: 10403 PSNR Mean Y:44.37 U:48.71 V:48.96 Avg:45.36 Global:44.82
x264 [info]: consecutive B-frames: 3.0% 3.1% 8.1% 15.7% 16.8% 45.4% 3.4% 2.1% 0.7% 0.2% 0.5% 0.6% 0.1% 0.1% 0.2%
-
-

Звездные войны: Эпизод 4 - Новая надежда

Звездные войны: Эпизод 4 - Новая надежда
Star Wars: Episode IV - A New Hope
Год выпуска: 1977
Страна: США
Жанр: фантастика, боевик, приключения
Продолжительность: 02:04:44
Перевод:
- профессиональный (полное дублирование, Blu-ray CEE)
- профессиональный (полное дублирование, ОРТ)
- профессиональный (двухголосый закадровый, Tycoon)
Cубтитры: русские, английские
Режиссер: Джордж Лукас / George Lucas
В ролях: Марк Хэмилл, Харрисон Форд, Кэрри Фишер, Питер Кашинг, Алек Гиннесс, Энтони Дэниелс, Кенни Бейкер, Питер Мейхью, Дэвид Праус, Джеймс Эрл Джонс
Описание: Татуин. Планета-пустыня. Уже постаревший рыцарь Джедай Оби Ван Кеноби спасает молодого Люка Скайуокера, когда тот пытается отыскать пропавшего дроида. С этого момента Люк осознает свое истинное назначение: он один из рыцарей Джедай. В то время как гражданская война охватила галактику, а войска повстанцев ведут бои против сил злого Императора, к Люку и Оби Вану присоединяется отчаянный пилот-наемник Хан Соло, и в сопровождении двух дроидов, R2D2 и C-3PO, этот необычный отряд отправляется на поиски предводителя повстанцев — принцессы Леи. Героям предстоит отчаянная схватка с устрашающим Дартом Вейдером — правой рукой Императора и его секретным оружием — «Звездой Смерти».
Рейтинг MPAA: -Доп. информация:
IMDb: 8.8/10, Top 250: #17
Kinopoisk: 8.018/10
Sample-Качество: BDRip 720p
Формат: MKV
Видео кодек: H.264
Аудио кодек: AC3, AAC
Видео: 1280x548 (2.34:1), 4011 kbps, 23.976 fps
Аудио №1: Russian, AC3, 6ch, 48 kHz, 448 kbps (Дубляж, Blu-ray CEE)
Аудио №2: Russian, AC3, 6ch, 48 kHz, 448 kbps (Дубляж, ОРТ)
Аудио №3: Russian, AC3, 6ch, 48 kHz, 448 kbps (Двухголосый, Tycoon)
Аудио №4: English, AC3, 6ch, 48 kHz, 448 kbps (Оригинал)
Аудио №5: English, AAC-LC, 2ch, 48 kHz, ~74 kbps (Комметарии №1 c Джорджем Лукасом, Кэрри Фишер, Беном Берттом и Дэннисом Муреном)
Аудио №6: English, AAC-LC, 2ch, 48 kHz, ~72 kbps (Комметарии №2 из архивных интервью с актерами и создателями фильма)
Субтитры №1: Russian, SRT, форсированные
Субтитры №2: Russian, SRT, полные, Blu-ray CEE
Субтитры №3: Russian, SRT, полные, Tycoon
Субтитры №4: Russian, SRT, комментарии №1
Субтитры №5: Russian, SRT, комментарии №2
Субтитры №6: English, SRT, форсированные
Субтитры №7: English, SRT, полные
Субтитры №8: English, SRT, комментарии №1
Субтитры №9: English, SRT, комментарии №2-Размер файла с двумя дорожками по 448 кбит/с и комментариями равен 4,37 ГБ.-

MediaInfo

Format : Matroska
Format version : Version 2
File size : 5.15 GiB
Duration : 2h 4mn
Overall bit rate : 5 916 Kbps
Movie name : Star Wars: Episode IV - A New Hope (1977) BDRip
Encoded date : UTC 2012-05-29 17:15:35
Writing application : mkvmerge v5.6.0 ('Kenya Kane') built on May 27 2012 16:44:04
Writing library : libebml v1.2.3 + libmatroska v1.3.0
Attachment : Yes / Yes
Video
ID : 1
Format : AVC
Format/Info : Advanced Video Codec
Format profile : [email protected]
Format settings, CABAC : Yes
Format settings, ReFrames : 11 frames
Codec ID : V_MPEG4/ISO/AVC
Duration : 2h 4mn
Width : 1 280 pixels
Height : 548 pixels
Display aspect ratio : 2.35:1
Frame rate : 23.976 fps
Color space : YUV
Chroma subsampling : 4:2:0
Bit depth : 8 bits
Scan type : Progressive
Writing library : x264 core 124 r2197kMod 69a0443
Encoding settings : cabac=1 / ref=11 / deblock=1:-3:-2 / analyse=0x3:0x133 / me=umh / subme=11 / psy=1 / fade_compensate=0.00 / psy_rd=1.12:0.05 / mixed_ref=1 / me_range=32 / chroma_me=1 / trellis=2 / 8x8dct=1 / cqm=0 / deadzone=21,11 / fast_pskip=0 / chroma_qp_offset=-3 / threads=6 / sliced_threads=0 / nr=0 / decimate=1 / interlaced=0 / bluray_compat=0 / constrained_intra=0 / bframes=14 / b_pyramid=2 / b_adapt=2 / b_bias=0 / direct=1 / weightb=1 / open_gop=0 / weightp=2 / keyint=250 / keyint_min=23 / scenecut=40 / intra_refresh=0 / rc=crf / mbtree=0 / crf=19.3500 / qcomp=0.65 / qpmin=0 / qpmax=69 / qpstep=4 / ip_ratio=1.40 / pb_ratio=1.25 / aq=3:0.90
Language : English
Default : Yes
Forced : No
Matrix coefficients : BT.709-5, BT.1361, IEC 61966-2-4 709, SMPTE RP177
Audio #1
ID : 2
Format : AC-3
Format/Info : Audio Coding 3
Mode extension : CM (complete main)
Codec ID : A_AC3
Duration : 2h 4mn
Bit rate mode : Constant
Bit rate : 448 Kbps
Channel(s) : 6 channels
Channel positions : Front: L C R, Side: L R, LFE
Sampling rate : 48.0 KHz
Bit depth : 16 bits
Compression mode : Lossy
Stream size : 400 MiB (8%)
Title : Dub (Blu-ray CEE)
Language : Russian
Default : Yes
Forced : No
Audio #2
ID : 3
Format : AC-3
Format/Info : Audio Coding 3
Mode extension : CM (complete main)
Codec ID : A_AC3
Duration : 2h 4mn
Bit rate mode : Constant
Bit rate : 448 Kbps
Channel(s) : 6 channels
Channel positions : Front: L C R, Side: L R, LFE
Sampling rate : 48.0 KHz
Bit depth : 16 bits
Compression mode : Lossy
Stream size : 400 MiB (8%)
Title : Dub (ORT)
Language : Russian
Default : No
Forced : No
Audio #3
ID : 4
Format : AC-3
Format/Info : Audio Coding 3
Mode extension : CM (complete main)
Codec ID : A_AC3
Duration : 2h 4mn
Bit rate mode : Constant
Bit rate : 448 Kbps
Channel(s) : 6 channels
Channel positions : Front: L C R, Side: L R, LFE
Sampling rate : 48.0 KHz
Bit depth : 16 bits
Compression mode : Lossy
Stream size : 400 MiB (8%)
Title : DVO (Tycoon)
Language : Russian
Default : No
Forced : No
Audio #4
ID : 5
Format : AC-3
Format/Info : Audio Coding 3
Mode extension : CM (complete main)
Codec ID : A_AC3
Duration : 2h 4mn
Bit rate mode : Constant
Bit rate : 448 Kbps
Channel(s) : 6 channels
Channel positions : Front: L C R, Side: L R, LFE
Sampling rate : 48.0 KHz
Bit depth : 16 bits
Compression mode : Lossy
Stream size : 400 MiB (8%)
Title : Original
Language : English
Default : No
Forced : No
Audio #5
ID : 6
Format : AAC
Format/Info : Advanced Audio Codec
Format profile : LC
Codec ID : A_AAC
Duration : 2h 4mn
Channel(s) : 2 channels
Channel positions : Front: L R
Sampling rate : 48.0 KHz
Compression mode : Lossy
Delay relative to video : 9ms
Title : Commentary #1 (George Lucas, Carrie Fisher, Ben Burtt, Dennis Muren)
Language : English
Default : No
Forced : No
Audio #6
ID : 7
Format : AAC
Format/Info : Advanced Audio Codec
Format profile : LC
Codec ID : A_AAC
Duration : 2h 4mn
Channel(s) : 2 channels
Channel positions : Front: L R
Sampling rate : 48.0 KHz
Compression mode : Lossy
Delay relative to video : 9ms
Title : Commentary #2 (from Archival Interviews with Cast and Crew)
Language : English
Default : No
Forced : No
Text #1
ID : 8
Format : UTF-8
Codec ID : S_TEXT/UTF8
Codec ID/Info : UTF-8 Plain Text
Title : Forced
Language : Russian
Default : Yes
Forced : No
Text #2
ID : 9
Format : UTF-8
Codec ID : S_TEXT/UTF8
Codec ID/Info : UTF-8 Plain Text
Title : Full (Blu-ray CEE)
Language : Russian
Default : No
Forced : No
Text #3
ID : 10
Format : UTF-8
Codec ID : S_TEXT/UTF8
Codec ID/Info : UTF-8 Plain Text
Title : Full (Tycoon)
Language : Russian
Default : No
Forced : No
Text #4
ID : 11
Format : UTF-8
Codec ID : S_TEXT/UTF8
Codec ID/Info : UTF-8 Plain Text
Title : Commentary #1
Language : Russian
Default : No
Forced : No
Text #5
ID : 12
Format : UTF-8
Codec ID : S_TEXT/UTF8
Codec ID/Info : UTF-8 Plain Text
Title : Commentary #2
Language : Russian
Default : No
Forced : No
Text #6
ID : 13
Format : UTF-8
Codec ID : S_TEXT/UTF8
Codec ID/Info : UTF-8 Plain Text
Title : Forced
Language : English
Default : No
Forced : No
Text #7
ID : 14
Format : UTF-8
Codec ID : S_TEXT/UTF8
Codec ID/Info : UTF-8 Plain Text
Title : Full
Language : English
Default : No
Forced : No
Text #8
ID : 15
Format : UTF-8
Codec ID : S_TEXT/UTF8
Codec ID/Info : UTF-8 Plain Text
Title : Commentary #1
Language : English
Default : No
Forced : No
Text #9
ID : 16
Format : UTF-8
Codec ID : S_TEXT/UTF8
Codec ID/Info : UTF-8 Plain Text
Title : Commentary #2
Language : English
Default : No
Forced : No
Menu
00:00:00.000 : :Opening Logos
00:00:21.021 : :A New Hope
00:01:53.405 : :Imperial Boarding Party
00:04:52.792 : :Artoo's Mission
00:07:28.281 : :Vader Confronts the Princess
00:08:54.868 : :Lost in the Desert
00:11:21.389 : :Land of the Jawas
00:15:40.231 : :Droids for Sale
00:19:40.179 : :In the Garage
00:23:33.203 : :Lars Family Dinner
00:25:32.614 : :Binary Sunset
00:27:45.497 : :Attack of the Sand People
00:29:12.709 : :Meeting Old Ben
00:32:34.077 : :"Your Father's Lightsaber"
00:34:53.008 : :Leia's Message
00:36:54.212 : :The Death Star
00:39:05.635 : :Torched Homestead
00:41:42.291 : :Luke's Decision
00:42:31.549 : :Mos Eisley Spaceport
00:44:51.731 : :The Cantina
00:47:52.620 : :Han Solo
00:49:57.995 : :Cornered by Greedo
00:51:13.696 : :Death Star Destination
00:52:40.741 : :Jabba the Hutt
00:54:12.332 : :The Millennium Falcon
00:56:59.916 : :Alderaan's Fate
00:59:14.176 : :Lightsaber Training
01:03:10.829 : :"That's No Moon..."
01:06:16.472 : :Secret Compartment
01:08:21.973 : :Planning the Escape
01:12:32.390 : :Wookiee Prisoner
01:14:12.657 : :Rescuing the Princess
01:17:13.712 : :Into the Garbage Chute
01:19:09.328 : :The Trash Compactor
01:21:29.384 : :The Walls Close In
01:25:00.220 : :Deactivating the Tractor Beam
01:27:02.092 : :Back to the Ship
01:29:56.182 : :Obi-Wan Vs. Vader
01:33:48.456 : :Tie Fighter Attack
01:36:39.877 : :"They Let Us Go"
01:38:06.756 : :Arrival on Yavin 4
01:39:37.513 : :Rebel Briefing
01:41:24.996 : :Han's Departure
01:42:37.401 : :Luke and Biggs
01:45:02.630 : :Assault on the Death Star
01:49:42.785 : :Trench Runs
01:55:18.912 : :"Use the Force, Luke"
01:57:47.394 : :A Hero's Welcome
01:58:28.518 : :Medal Ceremony
02:00:14.499 : :End Credits

x264 log

x264 [info]: frame I:1541 Avg QP:17.34 size:103368 PSNR Mean Y:45.52 U:47.80 V:48.38 Avg:46.21 Global:45.84
x264 [info]: frame P:37485 Avg QP:18.91 size: 41787 PSNR Mean Y:44.05 U:46.80 V:47.65 Avg:44.86 Global:44.48
x264 [info]: frame B:140427 Avg QP:20.94 size: 14435 PSNR Mean Y:43.09 U:46.33 V:47.21 Avg:43.99 Global:43.58
x264 [info]: consecutive B-frames: 2.6% 2.1% 5.4% 15.1% 17.2% 45.6% 6.1% 1.7% 1.6% 0.8% 0.5% 0.4% 0.3% 0.4% 0.2%
-
-

Звездные войны: Эпизод 5 - Империя наносит ответный удар

Звездные войны: Эпизод 5 - Империя наносит ответный удар
Star Wars: Episode V - The Empire Strikes Back
Год выпуска: 1980
Страна: США
Жанр: фантастика, боевик, приключения
Продолжительность: 02:07:21
Перевод:
- профессиональный (полное дублирование, Blu-ray CEE)
- профессиональный (полное дублирование, ОРТ)
- профессиональный (двухголосый закадровый, Tycoon)
Cубтитры: русские, английские
Режиссер: Ирвин Кершнер / Irvin Kershner
В ролях: Марк Хэмилл, Харрисон Форд, Кэрри Фишер, Билли Ди Уильямс, Энтони Дэниелс, Дэвид Праус, Питер Мейхью, Кенни Бейкер, Фрэнк Оз, Алек Гиннесс
Описание: Борьба за Галактику обостряется в пятом эпизоде космической саги. Войска Императора начинают массированную атаку на повстанцев и их союзников.
Хан Соло и принцесса Лейя укрываются в Заоблачном Городе, в котором их и захватывает Дарт Вейдер, в то время как Люк Скайуокер находится на таинственной планете джунглей Дагобар.
Там Мастер — джедай Йода обучает молодого рыцаря навыкам обретения Силы. Люк даже не предполагает, как скоро ему придется воспользоваться знаниями старого Мастера: впереди битва с превосходящими силами Императора и смертельный поединок с Дартом Вейдером.
Рейтинг MPAA: -Доп. информация:
IMDb: 8.8/10, Top 250: #11
Kinopoisk: 8.036/10
Sample-Качество: BDRip 720p
Формат: MKV
Видео кодек: H.264
Аудио кодек: AC3, AAC
Видео: 1280x548 (2.34:1), 3920 kbps, 23.976 fps
Аудио №1: Russian, AC3, 6ch, 48 kHz, 448 kbps (Дубляж, Blu-ray CEE)
Аудио №2: Russian, AC3, 6ch, 48 kHz, 448 kbps (Дубляж, ОРТ)
Аудио №3: Russian, AC3, 6ch, 48 kHz, 448 kbps (Двухголосый, Tycoon)
Аудио №4: English, AC3, 6ch, 48 kHz, 448 kbps (Оригинал)
Аудио №5: English, AAC-LC, 2ch, 48 kHz, ~75 kbps (Комметарии №1 c Джорджем Лукасом, Ирвином Кершнером, Кэрри Фишер, Беном Берттом и Дэннисом Муреном)
Аудио №6: English, AAC-LC, 2ch, 48 kHz, ~74 kbps (Комметарии №2 из архивных интервью с актерами и создателями фильма)
Субтитры №1: Russian, SRT, полные, Blu-ray CEE
Субтитры №2: Russian, SRT, полные, Tycoon
Субтитры №3: Russian, SRT, комментарии №1
Субтитры №4: Russian, SRT, комментарии №2
Субтитры №5: English, SRT, полные
Субтитры №6: English, SRT, комментарии №1
Субтитры №7: English, SRT, комментарии №2-Размер файла с двумя дорожками по 448 кбит/с и комментариями равен 4,37 ГБ.-

MediaInfo

Format : Matroska
Format version : Version 2
File size : 5.17 GiB
Duration : 2h 7mn
Overall bit rate : 5 815 Kbps
Movie name : Star Wars: Episode V - The Empire Strikes Back (1980) BDRip
Encoded date : UTC 2012-05-29 15:57:19
Writing application : mkvmerge v5.6.0 ('Kenya Kane') built on May 27 2012 16:44:04
Writing library : libebml v1.2.3 + libmatroska v1.3.0
Attachment : Yes
Video
ID : 1
Format : AVC
Format/Info : Advanced Video Codec
Format profile : [email protected]
Format settings, CABAC : Yes
Format settings, ReFrames : 11 frames
Codec ID : V_MPEG4/ISO/AVC
Duration : 2h 7mn
Width : 1 280 pixels
Height : 548 pixels
Display aspect ratio : 2.35:1
Frame rate : 23.976 fps
Color space : YUV
Chroma subsampling : 4:2:0
Bit depth : 8 bits
Scan type : Progressive
Writing library : x264 core 124 r2197kMod 69a0443
Encoding settings : cabac=1 / ref=11 / deblock=1:-3:-2 / analyse=0x3:0x133 / me=umh / subme=11 / psy=1 / fade_compensate=0.00 / psy_rd=1.00:0.05 / mixed_ref=1 / me_range=32 / chroma_me=1 / trellis=2 / 8x8dct=1 / cqm=0 / deadzone=21,11 / fast_pskip=0 / chroma_qp_offset=-3 / threads=6 / sliced_threads=0 / nr=0 / decimate=1 / interlaced=0 / bluray_compat=0 / constrained_intra=0 / bframes=14 / b_pyramid=2 / b_adapt=2 / b_bias=0 / direct=1 / weightb=1 / open_gop=0 / weightp=2 / keyint=250 / keyint_min=23 / scenecut=40 / intra_refresh=0 / rc=crf / mbtree=0 / crf=19.0500 / qcomp=0.65 / qpmin=0 / qpmax=69 / qpstep=4 / ip_ratio=1.40 / pb_ratio=1.25 / aq=3:0.85
Language : English
Default : Yes
Forced : No
Matrix coefficients : BT.709-5, BT.1361, IEC 61966-2-4 709, SMPTE RP177
Audio #1
ID : 2
Format : AC-3
Format/Info : Audio Coding 3
Mode extension : CM (complete main)
Codec ID : A_AC3
Duration : 2h 7mn
Bit rate mode : Constant
Bit rate : 448 Kbps
Channel(s) : 6 channels
Channel positions : Front: L C R, Side: L R, LFE
Sampling rate : 48.0 KHz
Bit depth : 16 bits
Compression mode : Lossy
Stream size : 408 MiB (8%)
Title : Dub (Blu-ray CEE)
Language : Russian
Default : Yes
Forced : No
Audio #2
ID : 3
Format : AC-3
Format/Info : Audio Coding 3
Mode extension : CM (complete main)
Codec ID : A_AC3
Duration : 2h 7mn
Bit rate mode : Constant
Bit rate : 448 Kbps
Channel(s) : 6 channels
Channel positions : Front: L C R, Side: L R, LFE
Sampling rate : 48.0 KHz
Bit depth : 16 bits
Compression mode : Lossy
Stream size : 408 MiB (8%)
Title : Dub (ORT)
Language : Russian
Default : No
Forced : No
Audio #3
ID : 4
Format : AC-3
Format/Info : Audio Coding 3
Mode extension : CM (complete main)
Codec ID : A_AC3
Duration : 2h 7mn
Bit rate mode : Constant
Bit rate : 448 Kbps
Channel(s) : 6 channels
Channel positions : Front: L C R, Side: L R, LFE
Sampling rate : 48.0 KHz
Bit depth : 16 bits
Compression mode : Lossy
Stream size : 408 MiB (8%)
Title : DVO (Tycoon)
Language : Russian
Default : No
Forced : No
Audio #4
ID : 5
Format : AC-3
Format/Info : Audio Coding 3
Mode extension : CM (complete main)
Codec ID : A_AC3
Duration : 2h 7mn
Bit rate mode : Constant
Bit rate : 448 Kbps
Channel(s) : 6 channels
Channel positions : Front: L C R, Side: L R, LFE
Sampling rate : 48.0 KHz
Bit depth : 16 bits
Compression mode : Lossy
Stream size : 408 MiB (8%)
Title : Original
Language : English
Default : No
Forced : No
Audio #5
ID : 6
Format : AAC
Format/Info : Advanced Audio Codec
Format profile : LC
Codec ID : A_AAC
Duration : 2h 7mn
Channel(s) : 2 channels
Channel positions : Front: L R
Sampling rate : 48.0 KHz
Compression mode : Lossy
Delay relative to video : 9ms
Title : Commentary #1 (George Lucas, Irvin Kershner, Carrie Fisher, Ben Burtt, Dennis Muren)
Language : English
Default : No
Forced : No
Audio #6
ID : 7
Format : AAC
Format/Info : Advanced Audio Codec
Format profile : LC
Codec ID : A_AAC
Duration : 2h 7mn
Channel(s) : 2 channels
Channel positions : Front: L R
Sampling rate : 48.0 KHz
Compression mode : Lossy
Delay relative to video : 9ms
Title : Commentary #2 (Archival Interviews with Cast and Crew)
Language : English
Default : No
Forced : No
Text #1
ID : 8
Format : UTF-8
Codec ID : S_TEXT/UTF8
Codec ID/Info : UTF-8 Plain Text
Title : Full (Blu-ray CEE)
Language : Russian
Default : No
Forced : No
Text #2
ID : 9
Format : UTF-8
Codec ID : S_TEXT/UTF8
Codec ID/Info : UTF-8 Plain Text
Title : Full (Tycoon)
Language : Russian
Default : No
Forced : No
Text #3
ID : 10
Format : UTF-8
Codec ID : S_TEXT/UTF8
Codec ID/Info : UTF-8 Plain Text
Title : Commentary #1
Language : Russian
Default : No
Forced : No
Text #4
ID : 11
Format : UTF-8
Codec ID : S_TEXT/UTF8
Codec ID/Info : UTF-8 Plain Text
Title : Commentary #2
Language : Russian
Default : No
Forced : No
Text #5
ID : 12
Format : UTF-8
Codec ID : S_TEXT/UTF8
Codec ID/Info : UTF-8 Plain Text
Title : Full
Language : English
Default : No
Forced : No
Text #6
ID : 13
Format : UTF-8
Codec ID : S_TEXT/UTF8
Codec ID/Info : UTF-8 Plain Text
Title : Commentary #1
Language : English
Default : No
Forced : No
Text #7
ID : 14
Format : UTF-8
Codec ID : S_TEXT/UTF8
Codec ID/Info : UTF-8 Plain Text
Title : Commentary #2
Language : English
Default : No
Forced : No
Menu
00:00:00.000 : en:Opening Logos
00:00:21.104 : en:The Empire Strikes Back
00:01:54.865 : en:Ice Planet Hoth
00:04:15.839 : en:The Rebel Base
00:08:19.249 : en:Escape From the Wampa
00:10:15.949 : en:Closing the Doors
00:12:57.735 : en:Obi-Wan's Instructions
00:15:13.538 : en:Search Party
00:16:29.697 : en:Luke's Recovery
00:18:19.974 : en:Imperial Probe Droid
00:19:45.393 : en:The Imperial Fleet
00:21:22.698 : en:Preparing for Battle
00:23:57.728 : en:First Transport Away
00:25:49.423 : en:Battle in the Snow
00:29:29.351 : en:The Tide Turns
00:31:29.221 : en:Rebels in Retreat
00:33:37.682 : en:Escape Aboard the Falcon
00:35:55.153 : en:Leaving for Dagobah
00:36:51.251 : en:The Empire in Pursuit
00:38:33.561 : en:Asteroid Field
00:40:36.726 : en:Crash Landing on Dagobah
00:44:20.074 : en:Hunting the Falcon
00:46:08.391 : en:"Found Someone, You Have"
00:50:13.385 : en:Interrupted Kiss
00:52:16.633 : en:The Emperor's Message
00:54:20.257 : en:Yoda's Hut
00:57:40.290 : en:"This is No Cave"
01:00:57.946 : en:Jedi Training
01:03:42.777 : en:Failure at the Cave
01:05:46.109 : en:Bounty Hunters
01:08:12.171 : en:There is No Try
01:13:24.233 : en:Out With the Garbage
01:16:39.887 : en:Seeing the Future
01:18:24.116 : en:City in the Clouds
01:19:45.864 : en:Meeting Lando
01:22:55.929 : en:Leaving Dagobah
01:25:38.550 : en:Leia's Concerns
01:27:51.266 : en:Imperial Surprise
01:30:28.673 : en:The Deal Gets Worse
01:34:39.799 : en:Carbon Freeze
01:38:28.903 : en:Luke Enters the Trap
01:40:26.145 : en:Confronting the Dark Lord
01:41:46.100 : en:Lando's Second Surprise
01:43:51.434 : en:Lightsaber Duel
01:47:02.541 : en:Escape From Cloud City
01:49:21.472 : en:Vader's Revelation
01:53:41.690 : en:Falcon to the Rescue
01:56:14.843 : en:The Empire Closes In
01:59:46.596 : en:The Rebel Fleet
02:01:58.228 : en:End Credits

x264 log

x264 [info]: frame I:1398 Avg QP:17.07 size: 97270 PSNR Mean Y:45.93 U:49.19 V:50.26 Avg:46.84 Global:46.40
x264 [info]: frame P:35342 Avg QP:18.57 size: 41192 PSNR Mean Y:44.42 U:48.29 V:49.50 Avg:45.43 Global:45.02
x264 [info]: frame B:146474 Avg QP:20.60 size: 14695 PSNR Mean Y:43.44 U:47.95 V:49.23 Avg:44.54 Global:44.13
x264 [info]: consecutive B-frames: 1.4% 1.2% 4.2% 13.2% 16.6% 51.5% 6.0% 1.8% 1.7% 1.1% 0.4% 0.3% 0.2% 0.2% 0.2%
-
-

Звездные войны: Эпизод 6 - Возвращение Джедая

Звездные войны: Эпизод 6 - Возвращение Джедая
Star Wars: Episode VI - Return of the Jedi
Год выпуска: 1983
Страна: США
Жанр: фантастика, боевик, приключения
Продолжительность: 02:14:47
Перевод:
- профессиональный (полное дублирование, Blu-ray CEE)
- профессиональный (полное дублирование, ОРТ)
- профессиональный (двухголосый закадровый, Tycoon)
Cубтитры: русские, английские
Режиссер: Ричард Маркуэнд / Richard Marquand
В ролях: Марк Хэмилл, Харрисон Форд, Кэрри Фишер, Билли Ди Уильямс, Энтони Дэниелс, Питер Мейхью, Себастьян Шоу, Иэн МакДайармид, Фрэнк Оз, Джеймс Эрл Джонс
Описание: В заключительном шестом эпизоде «Звездных войн» Дарт Вейдер создает вторую «Звезду Смерти». Он объединяет все силы зла, чтобы с помощью этого смертоносного оружия нанести последний сокрушительный удар по повстанцам и их союзникам.
Люк Скайуокер вместе с принцессой Лейей и верными дроидами R2D2 и C-3PO отправляется спасать своего друга Хана Соло, который попал в плен к отвратительному Джаббе Хатту — могущественному повелителю преступников.
Повстанцы высаживаются на планету Эндор, чтобы оттуда вместе с Люком и его отрядом предпринять последнюю атаку на Имперский флот, атаку, от которой зависит судьба Галактики. В этом эпизоде Люк Скайуокер и Дарт Вейдер встречаются в последний раз… ибо из поединка между отцом и сыном живым выйдет только один…

[Цитировать]



Показать сообщения:    

Текущее время: 04-Дек 21:27

Часовой пояс: UTC + 3


Вы не можете начинать темы
Вы не можете отвечать на сообщения
Вы не можете редактировать свои сообщения
Вы не можете удалять свои сообщения
Вы не можете голосовать в опросах
Вы не можете прикреплять файлы к сообщениям
Вы не можете скачивать файлы

!ВНИМАНИЕ!
Сайт не предоставляет электронные версии произведений, а занимается лишь коллекционированием и каталогизацией ссылок, присылаемых и публикуемых на форуме нашими читателями. Если вы являетесь правообладателем какого-либо представленного материала и не желаете, чтобы ссылка на него находилась в нашем каталоге, свяжитесь с нами, и мы незамедлительно удалим ее. Файлы для обмена на трекере предоставлены пользователями сайта, и администрация не несет ответственности за их содержание. Просьба не заливать файлы, защищенные авторскими правами, а также файлы нелегального содержания!