[ Сегодня идет свободное скачивание без начисления Download ]


Статистика раздачи
Нет
 
   
 
Top  
 
 
-Вооруженный отпор / Deacons for Defense (2003) DVD9- Русское название: Вооруженный отпор
Оригинальное название: Deacons for Defense
Год выпуска: 2003
Производство: США , Showtime
Жанр: Драма
Перевод: Профессиональный (двухголосый, закадровый)
Язык субтитров: Русский
Вид субтитров: Вшитые (отключаемые)

Дата мировой премьеры: 16 февраля 2003
Режиссер: Билл Дьюк/Bill Duke
Cценарий: Майкл Д’Антонио/Michael D'Antonio (...рассказ), Ричард Уэсли/Richard Wesley (...телепьеса), Фрэнк Милитери/Frank Military (...телепьеса)
Актеры: Форест Уитакер, Крис Бриттон, Джонатан Силвермен, Осси Дэвис, Джин Макк, Тайрон Бенскин, Пол Бенджамин, Мфо Коахо, Мелани Николлз-Кинг, Серена Ли, Хефрена Арматрейдинг, Адам Уэйнер, Бо Старр, Паулино Нюнс, Аарон Валпоул и др.
Описание фильма:
В начале 60-х годов в южных штатах Америки все еще царит расизм. Решив, что с них хватит, чернокожие ветераны войны из Луизианы взялись за оружие и с помощью местных священников основали организацию "Проповедники в защиту справедливости", патрулирующую границы черных кварталов и защищающую борцов за гражданские права. Первая в Америке черная милиция привлекает внимание Ку-клукс-клана. На помощь расистам съезжаются их единомышленники со всех Соединенных Штатов. Начавшаяся после вступления в силу Акта о гражданских правах десегрегация только подливает масла в огонь противостояния между черными и белыми. Дело доходит до вмешательства федеральных властей. Но перемены уже не остановить…
Дополнительные материалы:
- Каталог
- Смотрите на DVD
- Создатели и исполнители
Продолжительность: 01:35:16
Качество: DVD
Формат: DVD9
Видео кодек: MPEG-2
Битрейт видео: 6380 Кбит/сек
Размер кадра: 720x576@768x576 PAL 4:3 VBR
Аудио#1: Русский АС-3 6.0 448 Кбит/сек 48,0 КГц 16 бит
Аудио#2: Английский АС-3 6.0 448 Кбит/сек 48,0 КГц 16 бит

Скриншоты меню


Скриншоты:

DVDInfo

Title: Vooruzhennyy_otpor_DVD9
Size: 6.12 Gb ( 6 417 430,00 KBytes ) - DVD-9
Enabled regions: 1, 2, 3, 4, 5, 6, 7, 8
VTS_01 :
Play Length: 00:00:10
Video: PAL 4:3 (720x576) VBR
VTS_02 :
Play Length: 00:00:11
Video: PAL 4:3 (720x576) VBR
Audio:
Not specified (Dolby AC3, 6 ch)
VTS_03 :
Play Length: 00:00:19
Video: PAL 4:3 (720x576) VBR
Audio:
Not specified (Dolby AC3, 2 ch)
Not specified (Dolby AC3, 2 ch)
Subtitles:
Not specified
VTS_04 :
Play Length: 00:00:15
Video: PAL 4:3 (720x576) VBR
Audio:
Not specified (Dolby AC3, 2 ch)
Not specified (Dolby AC3, 2 ch)
Subtitles:
Not specified
VTS_05 :
Play Length: 00:00:30
Video: PAL 4:3 (720x576) VBR
Audio:
Not specified (Dolby AC3, 2 ch)
Not specified (Dolby AC3, 2 ch)
Subtitles:
Not specified
VTS_06 :
Play Length: 00:02:19
Video: PAL 4:3 (720x576) VBR
Audio:
Not specified (Dolby AC3, 2 ch)
Subtitles:
Not specified
VTS_07 :
Play Length: 00:01:48
Video: PAL 4:3 (720x576) VBR
Audio:
Not specified (Dolby AC3, 2 ch)
VTS_08 :
Play Length: 00:02:20
Video: PAL 4:3 (720x576) VBR
Audio:
Not specified (Dolby AC3, 2 ch)
VTS_09 :
Play Length: 00:01:34
Video: PAL 4:3 (720x576) VBR
Audio:
Not specified (Dolby AC3, 2 ch)
VTS_10 :
Play Length: 00:01:48
Video: PAL 4:3 (720x576) VBR
Audio:
Not specified (Dolby AC3, 2 ch)
VTS_11 :
Play Length: 00:02:14
Video: PAL 4:3 (720x576) VBR
Audio:
Not specified (Dolby AC3, 2 ch)
VTS_12 :
Play Length: 00:01:43
Video: PAL 4:3 (720x576) VBR
Audio:
Not specified (Dolby AC3, 2 ch)
Subtitles:
Not specified
VTS_13 :
Play Length: 00:01:38
Video: PAL 4:3 (720x576) VBR
Audio:
Not specified (Dolby AC3, 2 ch)
Subtitles:
Not specified
VTS_14 :
Play Length: 00:01:45
Video: PAL 4:3 (720x576) VBR
Audio:
Not specified (Dolby AC3, 5 ch)
VTS_15 :
Play Length: 00:02:24
Video: PAL 4:3 (720x576) VBR
Audio:
Not specified (Dolby AC3, 2 ch)
VTS_16 :
Play Length: 00:02:13
Video: PAL 4:3 (720x576) VBR
Audio:
Not specified (Dolby AC3, 2 ch)
VTS_17 :
Play Length: 01:35:16
Video: PAL 4:3 (720x576) VBR
Audio:
Russian (Dolby AC3, 6 ch)
English (Dolby AC3, 6 ch)
Subtitles:
Russian

MediaInfo

Общее
Полное имя : M:\Vooruzhennyy_otpor_DVD9\VIDEO_TS\VTS_17_1.VOB
Формат : MPEG-PS
Размер файла : 1024 Мбайт
Продолжительность : 19 м.
Режим общего битрейта : Переменный
Общий поток : 7424 Кбит/сек
Видео
Идентификатор : 224 (0xE0)
Формат : MPEG Video
Версия формата : Version 2
Профиль формата : Main@Main
Параметр BVOP формата : Да
Параметр матрицы формата : Выборочная
Параметр GOP формата : M=3, N=15
Продолжительность : 19 м.
Вид битрейта : Переменный
Битрейт : 6380 Кбит/сек
Максимальный битрейт : 8000 Кбит/сек
Ширина : 720 пикселей
Высота : 576 пикселей
Соотношение сторон : 4:3
Частота кадров : 25,000 кадров/сек
Стандарт вещания : PAL
Цветовое пространство : YUV
Субдискретизация насыщенности : 4:2:0
Битовая глубина : 8 бит
Тип развёртки : Чересстрочная
Порядок развёртки : Верхнее поле первое
Метод сжатия : С потерями
Бит/(Пиксели*Кадры) : 0.615
TimeCode_FirstFrame : 01:00:00:00
TimeCode_Source : Group of pictures header
Размер потока : 880 Мбайт (86%)
Аудио #1
Идентификатор : 189 (0xBD)-128 (0x80)
Формат : AC-3
Формат/Информация : Audio Coding 3
Расширение режима : CM (complete main)
Параметр Endianness формата : Big
Режим смешивания : DVD-Video
Продолжительность : 19 м.
Вид битрейта : Постоянный
Битрейт : 448 Кбит/сек
Каналы : 6 каналов
Расположение каналов : Front: L C R, Side: L R, LFE
Частота : 48,0 КГц
Битовая глубина : 16 бит
Метод сжатия : С потерями
Задержка видео : -80 мс.
Размер потока : 61,8 Мбайт (6%)
Аудио #2
Идентификатор : 189 (0xBD)-129 (0x81)
Формат : AC-3
Формат/Информация : Audio Coding 3
Расширение режима : CM (complete main)
Параметр Endianness формата : Big
Режим смешивания : DVD-Video
Продолжительность : 19 м.
Вид битрейта : Постоянный
Битрейт : 448 Кбит/сек
Каналы : 6 каналов
Расположение каналов : Front: L C R, Side: L R, LFE
Частота : 48,0 КГц
Битовая глубина : 16 бит
Метод сжатия : С потерями
Задержка видео : -80 мс.
Размер потока : 61,8 Мбайт (6%)
Текст
Идентификатор : 189 (0xBD)-32 (0x20)
Формат : RLE
Формат/Информация : Run-length encoding
Режим смешивания : DVD-Video
Меню
Время раздачи: 24/7 (по возможности)

[Цитировать]



Показать сообщения:    

Текущее время: 28-Июн 09:37

Часовой пояс: UTC + 6


Вы не можете начинать темы
Вы не можете отвечать на сообщения
Вы не можете редактировать свои сообщения
Вы не можете удалять свои сообщения
Вы не можете голосовать в опросах
Вы не можете прикреплять файлы к сообщениям
Вы не можете скачивать файлы

!ВНИМАНИЕ!
Сайт не предоставляет электронные версии произведений, а занимается лишь коллекционированием и каталогизацией ссылок, присылаемых и публикуемых на форуме нашими читателями. Если вы являетесь правообладателем какого-либо представленного материала и не желаете, чтобы ссылка на него находилась в нашем каталоге, свяжитесь с нами, и мы незамедлительно удалим ее. Файлы для обмена на трекере предоставлены пользователями сайта, и администрация не несет ответственности за их содержание. Просьба не заливать файлы, защищенные авторскими правами, а также файлы нелегального содержания!