[ Сегодня идет свободное скачивание без начисления Download ]


Статистика раздачи
Нет
 
   
 
Top  
 
 
-Час расплаты (Расширенная версия) / Paycheck (Extended Cut) (2003) HDRip- Русское название: Час расплаты (Расширенная версия)
Оригинальное название: Paycheck (Extended Cut)
Год выпуска: 2003
Жанр: Боевик, Триллер, Фантастика
Описание фильма:
Майкл Дженнингс — выдающийся компьютерный инженер-виртоуз, работающий над строго засекреченными мега-проектами. После успешного выполнения работы Майклу на специальном устройстве стирают часть памяти, дабы он не смог вспомнить никаких подробностей.
Последнее дело Дженнингса — контракт на три года от старого друга, по завершении которого герой должен получить чек на «скромную» восьмизначную сумму. Какого же было удивление инженера, когда он, придя в себя после «стирания» памяти, не обнаружил заветного чека, но нашел конверт со странными предметами, которые он послал себе сам. Эти предметы — ключи к «стертому» прошлому Дженнингса, где скрывается страшная тайна!
Режиссер: Джон Ву
Актеры: Бен Аффлек, Ума Турман, Аарон Экхарт, Пол Джаматти, Майкл С. Холл, Джо Мортон, Колм Феоре, Питер Фридман, Кэтрин Моррис, Ивана Миличевич
Продолжительность: 02:05:43
Перевод: Дублированный, со вставками двухголосого на расширенные места

Дата мировой премьеры: 25.12.2003
Дата российской премьеры: 19.02.2004
Дата выхода DVD релиза: 31.03.2011
Видеокодек: Xvid
Битрейт видео: ~2050 kbps avg
Размер кадра: 720x304
Качество видео: HDRip
Аудио #1: 44.100 kHz, MPEG Layer 3, 2 ch, 128.00 kbps avg
Профессиональный (полное дублирование со вставками любительского двухголосого на расширенные места)
Аудио #2: 44,1 kHz, AC3 Dolby Digital, 2/0 (L,R) ch, 256 kbps
Профессиональный (полное дублирование без перевода на расширенные места)

Extended Cut

Расширенная версия была получена путем врезания удаленных и расширенных сцен на свои места.
Добавленные сцены отличаются по качеству видео от самого фильма.

MediaInfo

Общее
Полное имя : E:\торренты на раздаче\Час расплаты [расширенная версия].avi
Формат : AVI
Формат/Информация : Audio Video Interleave
Профиль формата : OpenDML
Размер файла : 2,14 Гбайт
Продолжительность : 2 ч. 5 м.
Общий поток : 2442 Кбит/сек
Программа кодирования : VirtualDubMod 1.5.10.2 (build 2540/release)
Библиотека кодирования : VirtualDubMod build 2540/release
Видео
Идентификатор : 0
Формат : MPEG-4 Visual
Профиль формата : Advanced [email protected]
Параметр BVOP формата : 1
Параметр QPel формата : Нет
Параметр GMC формата : Без точки перехода
Параметр матрицы формата : Default (H.263)
Режим смешивания : Сжатый битовый поток
Идентификатор кодека : XVID
Идентификатор кодека/Подсказка : XviD
Продолжительность : 2 ч. 5 м.
Битрейт : 2036 Кбит/сек
Ширина : 720 пикселей
Высота : 304 пикселя
Соотношение сторон : 2,35:1
Частота кадров : 29,970 кадров/сек
Цветовое пространство : YUV
Субдискретизация насыщенности : 4:2:0
Битовая глубина : 8 бит
Тип развёртки : Прогрессивная
Метод сжатия : С потерями
Бит/(Пиксели*Кадры) : 0.310
Размер потока : 1,79 Гбайт (83%)
Библиотека кодирования : XviD 1.2.1 (UTC 2008-12-04)
Аудио #1
Идентификатор : 1
Формат : MPEG Audio
Версия формата : Version 1
Профиль формата : Layer 3
Режим : Joint stereo
Расширение режима : MS Stereo
Идентификатор кодека : 55
Идентификатор кодека/Подсказка : MP3
Продолжительность : 2 ч. 5 м.
Вид битрейта : Постоянный
Битрейт : 128 Кбит/сек
Каналы : 2 канала
Частота : 44,1 КГц
Метод сжатия : С потерями
Размер потока : 115 Мбайт (5%)
Выравнивание : Разделение по промежуткам
Продолжительность промежутка : 33 мс. (1,00 видеокадр)
Время предзагрузки промежутка : 500 мс.
Аудио #2
Идентификатор : 2
Формат : AC-3
Формат/Информация : Audio Coding 3
Расширение режима : CM (complete main)
Параметр Endianness формата : Big
Идентификатор кодека : 2000
Продолжительность : 2 ч. 5 м.
Вид битрейта : Постоянный
Битрейт : 256 Кбит/сек
Каналы : 2 канала
Расположение каналов : Front: L R
Частота : 44,1 КГц
Битовая глубина : 16 бит
Метод сжатия : С потерями
Размер потока : 230 Мбайт (10%)
Выравнивание : Соединение по промежуткам
Продолжительность промежутка : 35 мс. (1,04 видеокадр)
Время предзагрузки промежутка : 522 мс.
Скриншоты:
Время раздачи: по возможности 24/7

[Цитировать]



Показать сообщения:    

Текущее время: 07-Дек 00:52

Часовой пояс: UTC + 3


Вы не можете начинать темы
Вы не можете отвечать на сообщения
Вы не можете редактировать свои сообщения
Вы не можете удалять свои сообщения
Вы не можете голосовать в опросах
Вы не можете прикреплять файлы к сообщениям
Вы не можете скачивать файлы

!ВНИМАНИЕ!
Сайт не предоставляет электронные версии произведений, а занимается лишь коллекционированием и каталогизацией ссылок, присылаемых и публикуемых на форуме нашими читателями. Если вы являетесь правообладателем какого-либо представленного материала и не желаете, чтобы ссылка на него находилась в нашем каталоге, свяжитесь с нами, и мы незамедлительно удалим ее. Файлы для обмена на трекере предоставлены пользователями сайта, и администрация не несет ответственности за их содержание. Просьба не заливать файлы, защищенные авторскими правами, а также файлы нелегального содержания!