[ Сегодня идет свободное скачивание без начисления Download ]


Статистика раздачи
Нет
 
   
 
Top  
 
 
-Последние добрые слова / Last Kind Words (2012) WEB-DLRip- Русское название: Последние добрые слова
Оригинальное название: Last Kind Words
Производство: США / The East Gable
Год выпуска: 2012
Жанр: Триллер, Драма, Детектив
Описание фильма:
17-летний юноша Илай переезжает вместе со своими родителями в самую глушь Кентукки. Его необъяснимо притягивает прохлада леса, где Илай любит бродить часами. Именно там он встречает прекрасную, милую и загадочную Аманду, девушку своей мечты. Но после того, как юноша обнаруживает в лесу тело повешенного человека, события приобретают неожиданный поворот, и Илаю предстоит узнать темную и пугающую правду о той, которую он полюбил.
Режиссер: Кевин Баркер
Актеры: Брэд Дуриф, Спенсер Дэниелс, Алексия Фаст, Марианн Хэйгэн, Сара Стил, Клэй Уилкокс, Рич Уильямс ,Рон Элиот, Джоэнн Кель, Robert A.A. Lowe
Продолжительность: 01:27:43
Перевод: Двуголосый закадровый, любительский
Озвучка / Автор перевода: DeadSno & den904 / Janetta
Язык субтитров: Отсутствуют

Дата мировой премьеры: 24 марта 2012
Видеокодек: Xvid
Битрейт видео: ~1856 Kbit/s
Размер кадра: 720 x 304
Качество видео: WEB-DLRip
Аудиокодек: AC3 5.1
Битрейт аудио: 384 Kbit/s

MediaInfo

Общее
Полное имя : D:\Торренты\Последние добрые слова.2012.WEB-DLRip.avi
Формат : AVI
Формат/Информация : Audio Video Interleave
Размер файла : 1,37 Гбайт
Продолжительность : 1 ч. 27 м.
Общий поток : 2249 Кбит/сек
Программа кодирования : VirtualDubMod 1.5.10.2 (build 2540/release)
Библиотека кодирования : VirtualDubMod build 2540/release
Видео
Идентификатор : 0
Формат : MPEG-4 Visual
Профиль формата : Advanced [email protected]
Параметр BVOP формата : 2
Параметр QPel формата : Нет
Параметр GMC формата : Без точки перехода
Параметр матрицы формата : Default (H.263)
Идентификатор кодека : XVID
Идентификатор кодека/Подсказка : XviD
Продолжительность : 1 ч. 27 м.
Битрейт : 1856 Кбит/сек
Ширина : 720 пикс.
Высота : 304 пикс.
Соотношение сторон : 2,35:1
Частота кадров : 23,976 кадр/сек
Цветовое пространство : YUV
Подвыборка цветности : 4:2:0
Битовая глубина : 8 бит
Тип развёртки : Прогрессивная
Метод сжатия : С потерями
Бит/(Пиксели*Кадры) : 0.354
Размер потока : 1,13 Гбайт (83%)
Библиотека кодирования : XviD 1.2.1 (UTC 2008-12-04)
Аудио
Идентификатор : 1
Формат : AC-3
Формат/Информация : Audio Coding 3
Расширение режима : CM (complete main)
Идентификатор кодека : 2000
Продолжительность : 1 ч. 27 м.
Вид битрейта : Постоянный
Битрейт : 384 Кбит/сек
Каналы : 6 каналов
Расположение каналов : Front: L C R, Side: L R, LFE
Частота : 48,0 КГц
Битовая глубина : 16 бит
Метод сжатия : С потерями
Размер потока : 239 Мбайт (17%)
Выравнивание : Разделение по промежуткам
Продолжительность промежутка : 42 мс. (1,00 видеокадр)
Время предзагрузки промежутка : 500 ms
Скриншоты:
Время раздачи: 24/7 по возможности

[Цитировать]



Показать сообщения:    

Текущее время: 06-Дек 03:48

Часовой пояс: UTC + 3


Вы не можете начинать темы
Вы не можете отвечать на сообщения
Вы не можете редактировать свои сообщения
Вы не можете удалять свои сообщения
Вы не можете голосовать в опросах
Вы не можете прикреплять файлы к сообщениям
Вы не можете скачивать файлы

!ВНИМАНИЕ!
Сайт не предоставляет электронные версии произведений, а занимается лишь коллекционированием и каталогизацией ссылок, присылаемых и публикуемых на форуме нашими читателями. Если вы являетесь правообладателем какого-либо представленного материала и не желаете, чтобы ссылка на него находилась в нашем каталоге, свяжитесь с нами, и мы незамедлительно удалим ее. Файлы для обмена на трекере предоставлены пользователями сайта, и администрация не несет ответственности за их содержание. Просьба не заливать файлы, защищенные авторскими правами, а также файлы нелегального содержания!