[ Сегодня идет свободное скачивание без начисления Download ]


Статистика раздачи
Нет
 
   
 
Top  
 
 
-Ночь в баре Маккула / One Night at McCool's (2001) DVDRip
«A story about finding the perfect woman... and trying desperately to give her back.»
-- Русское название: Ночь в баре Маккула
Оригинальное название: One Night at McCool's
Год выпуска: 2001
Производство: США / Further Films, October Films
Жанр: комедия, криминал-Описание фильма:
Она могла заставить мертвого станцевать для нее чечетку. Но предпочитала живых. Их было трое: бармен Рэнди, сразу заглотивший наживку, адвокат Карл и детектив Делинг, занятый расследованием убийства. В умелых руках красота — страшная сила, и Джюел использовала свой дар на полную катушку.
Все началось однажды ночью в баре Маккула, когда Рэнди впервые увидел ее. В последующие дни Джюел сумела сделать так, что один совсем потерял из-за нее голову, другой забыл о своей живой жене, а третий — даже не вспомнил о мертвой.
И неудивительно: ведь она хотела больше, чем все они вместе взятые! Был еще четвертый, который считал себя хитрее остальных…-Режиссер: Харольд Цварт
Продюсер: Майкл Дуглас, Эллисон Лион Сеган, Уитни Грин
Актеры: Лив Тайлер, Мэтт Диллон, Джон Гудман, Пол Райзер, Майкл Дуглас, Ричард Дженкинс, Риба МакИнтайр, Тим Де Зарн, Андреа Бендеуолд, Сэнди Мартин ...
Продолжительность: 01:28:50
Перевод: Многоголосый закадровый

Дата мировой премьеры: 19 апреля 2001
Дата выхода DVD релиза: 16 октября 2006, «West Video»
Видеокодек: Xvid
Битрейт видео: ~1774 Kbps
Размер кадра: 720*400
Качество видео: DVDRip
Аудиокодек: AC3 5.1
Битрейт аудио: 448 Kbps

MediaInfo:

General
Complete name                            : :\\Noch.v.bare.Makkula (2001).JP.DVDRip.avi
Format                                   : AVI
Format/Info                              : Audio Video Interleave
File size                                : 1.39 GiB
Duration                                 : 1h 28mn
Overall bit rate                         : 2 232 Kbps
Writing application                      : VirtualDubMod 1.5.10.3 | [url=http://www.virtualdub-fr.org]www.virtualdub-fr.org[/url] || (build 2550/release)
Writing library                          : VirtualDubMod build 2550/release
Video
ID                                       : 0
Format                                   : MPEG-4 Visual
Format profile                           : Advanced Simple@L5
Format settings, BVOP                    : 2
Format settings, QPel                    : No
Format settings, GMC                     : No warppoints
Format settings, Matrix                  : Default (MPEG)
Codec ID                                 : XVID
Codec ID/Hint                            : XviD
Duration                                 : 1h 28mn
Bit rate                                 : 1 774 Kbps
Width                                    : 720 pixels
Height                                   : 400 pixels
Display aspect ratio                     : 16:9
Frame rate                               : 25.000 fps
Color space                              : YUV
Chroma subsampling                       : 4:2:0
Bit depth                                : 8 bits
Scan type                                : Progressive
Compression mode                         : Lossy
Bits/(Pixel*Frame)                       : 0.246
Stream size                              : 1.10 GiB (79%)
Writing library                          : XviD 65
Audio
ID                                       : 1
Format                                   : AC-3
Format/Info                              : Audio Coding 3
Mode extension                           : CM (complete main)
Format settings, Endianness              : Big
Codec ID                                 : 2000
Duration                                 : 1h 28mn
Bit rate mode                            : Constant
Bit rate                                 : 448 Kbps
Channel(s)                               : 6 channels
Channel positions                        : Front: L C R, Side: L R, LFE
Sampling rate                            : 48.0 KHz
Bit depth                                : 16 bits
Compression mode                         : Lossy
Stream size                              : 285 MiB (20%)
Alignment                                : Split accross interleaves
Interleave, duration                     : 40 ms (1.00 video frame)
Interleave, preload duration             : 500 ms
Скриншоты:

Рецензия, отзыв о фильме

Eria:
Если хочешь, я буду мягкой,
если нужно — я буду жесткой,
если можно — я буду стервой,
ну а лучше — останусь кошкой.(с)

Давно я не видела такого искрометного, задевающего за живое и берущего за душу черного юмора! Кстати, не могу сказать, что концовка была ожидаемой: Джюэл в исполнении блистающей (в прямом смысле) Лив Тайлер в принципе не может быть предсказуемой.
Это довольно странное чувство — восхищаться убийцей, мошенницей, воровкой, авантюристкой, вымогательницей и… (список можно продолжать).
Но когда это делают так виртуозно, боясь запачкать перышки и не мучаясь чувством вины, нам, простым смертным, невозможно не захлопать в ладоши и не корчиться в экстазе беспрерывного хохота.
Мой вердикт
Смотреть всем, у кого не атрофировалось чувство юмора.
Фильм про то, как можно выйти сухим из любой, самой дрянной ситуации.
Время раздачи: 24/7 до 3-х скачавших

[Цитировать]



Показать сообщения:    

Текущее время: 11-Дек 11:06

Часовой пояс: UTC + 3


Вы не можете начинать темы
Вы не можете отвечать на сообщения
Вы не можете редактировать свои сообщения
Вы не можете удалять свои сообщения
Вы не можете голосовать в опросах
Вы не можете прикреплять файлы к сообщениям
Вы не можете скачивать файлы

!ВНИМАНИЕ!
Сайт не предоставляет электронные версии произведений, а занимается лишь коллекционированием и каталогизацией ссылок, присылаемых и публикуемых на форуме нашими читателями. Если вы являетесь правообладателем какого-либо представленного материала и не желаете, чтобы ссылка на него находилась в нашем каталоге, свяжитесь с нами, и мы незамедлительно удалим ее. Файлы для обмена на трекере предоставлены пользователями сайта, и администрация не несет ответственности за их содержание. Просьба не заливать файлы, защищенные авторскими правами, а также файлы нелегального содержания!