[ Сегодня идет свободное скачивание без начисления Download ]


Статистика раздачи
Нет
 
   
 
Top  
 
 
-Вверх тормашками / Head Over Heels (2001) HDTVRip [H.264] -«How does it feel to fall head over heels?»- Русское название: Вверх тормашками
Оригинальное название: Head Over Heels
Год выпуска: 2001
Жанр: Мелодрама, Комедия, Детектив
Производство: США / Robert Simonds Productions, Universal Pictures
Описание фильма:
Героине этой комедии — очаровательной и интеллигентной девушке по имени Аманда, катастрофически не везет с мужчинами. Однажды она застает своего возлюбленного в постели с весьма вульгарной девицей. Какая ужасная несправедливость! Наша гордая Аманда, великодушно оставив квартиру своему бывшему другу, подыскала себе новое жилье.
Ее вполне устроила крошечная комнатка в шикарных апартаментах, снимаемых четырьмя очень высокими, но не очень сообразительными супермоделями. Вот здесь и происходит встреча нашей героини с самим «Мистером Совершенство». Им оказывается сосед Джим — прекрасно одевающийся, обаятельный и тактичный молодой человек. Наша героиня влюбляется в него с первого взгляда. Но случается ужасное.
Как-то вечером Аманда видит в окно, как Джим расправляется с незнакомой юной дамой при помощи бейсбольной биты. Неужели ее избранник — убийца? Аманда решает провести собственное расследование.
Режиссер: Марк Уотерс
Актеры: Моника Поттер, Фредди Принц мл., Шалом Харлоу, Ивана Миличевич, Сара О’Харе, Томико Фрайзер, Чайна Чоу, Джей Бразо, Стэнли ДеСантис, Эрин-Мари Дайкман
Продолжительность: 01:22:41
Перевод: Многоголосый закадровый

Дата мировой премьеры: 2 февраля 2001
Видеокодек: MPEG-4 AVC/H.264
Битрейт видео: ~2740 Кбит/сек
Размер кадра: 1024x576
Качество видео: HDTVRip
Аудиокодек: AC3 2.0
Битрейт аудио: 448 Кбит/сек

MediaInfo:

General
Unique ID : 246875743645669655201365090108437372317 (0xB9BA89E9C03D4149A23049B7FE4F1D9D)
Complete name : H:\Downloads\Вверх тормашками.mkv
Format : Matroska
Format version : Version 4 / Version 2
File size : 1.84 GiB
Duration : 1h 22mn
Overall bit rate : 3 188 Kbps
Encoded date : UTC 2013-06-01 13:26:31
Writing application : mkvmerge v6.0.0 ('Coming Up For Air') built on Jan 20 2013 09:52:00
Writing library : libebml v1.3.0 + libmatroska v1.4.0
Video
ID : 1
Format : AVC
Format/Info : Advanced Video Codec
Format profile : High@L3.2
Format settings, CABAC : Yes
Format settings, ReFrames : 8 frames
Codec ID : V_MPEG4/ISO/AVC
Duration : 1h 22mn
Bit rate : 2 740 Kbps
Width : 1 024 pixels
Height : 576 pixels
Display aspect ratio : 16:9
Frame rate mode : Constant
Frame rate : 25.000 fps
Color space : YUV
Chroma subsampling : 4:2:0
Bit depth : 8 bits
Scan type : Progressive
Bits/(Pixel*Frame) : 0.186
Stream size : 1.55 GiB (84%)
Title : Head Over Heels
Writing library : x264 core 125 r2208 d9d2288
Encoding settings : cabac=1 / ref=8 / deblock=1:-1:-1 / analyse=0x3:0x133 / me=umh / subme=9 / psy=1 / psy_rd=1.00:0.10 / mixed_ref=1 / me_range=32 / chroma_me=1 / trellis=2 / 8x8dct=1 / cqm=0 / deadzone=21,11 / fast_pskip=0 / chroma_qp_offset=-3 / threads=6 / lookahead_threads=1 / sliced_threads=0 / nr=0 / decimate=1 / interlaced=0 / bluray_compat=0 / constrained_intra=0 / bframes=3 / b_pyramid=2 / b_adapt=2 / b_bias=0 / direct=3 / weightb=1 / open_gop=0 / weightp=2 / keyint=250 / keyint_min=25 / scenecut=40 / intra_refresh=0 / rc_lookahead=60 / rc=2pass / mbtree=1 / bitrate=2740 / ratetol=1.0 / qcomp=0.60 / qpmin=10 / qpmax=51 / qpstep=4 / cplxblur=20.0 / qblur=0.5 / ip_ratio=1.40 / aq=1:1.00
Language : English
Default : Yes
Forced : No
Audio
ID : 2
Format : AC-3
Format/Info : Audio Coding 3
Mode extension : CM (complete main)
Format settings, Endianness : Big
Codec ID : A_AC3
Duration : 1h 22mn
Bit rate mode : Constant
Bit rate : 448 Kbps
Channel(s) : 2 channels
Channel positions : Front: L R
Sampling rate : 48.0 KHz
Bit depth : 16 bits
Compression mode : Lossy
Delay relative to video : 177ms
Stream size : 265 MiB (14%)
Title : Профессиональный многоголосый
Language : Russian
Default : Yes
Forced : No
Скриншоты: Время раздачи: с 13:00 до 01:00 по Москве (выходные круглосуточно), до 10 скачавших

[Цитировать]



Показать сообщения:    

Текущее время: 09-Дек 06:56

Часовой пояс: UTC + 3


Вы не можете начинать темы
Вы не можете отвечать на сообщения
Вы не можете редактировать свои сообщения
Вы не можете удалять свои сообщения
Вы не можете голосовать в опросах
Вы не можете прикреплять файлы к сообщениям
Вы не можете скачивать файлы

!ВНИМАНИЕ!
Сайт не предоставляет электронные версии произведений, а занимается лишь коллекционированием и каталогизацией ссылок, присылаемых и публикуемых на форуме нашими читателями. Если вы являетесь правообладателем какого-либо представленного материала и не желаете, чтобы ссылка на него находилась в нашем каталоге, свяжитесь с нами, и мы незамедлительно удалим ее. Файлы для обмена на трекере предоставлены пользователями сайта, и администрация не несет ответственности за их содержание. Просьба не заливать файлы, защищенные авторскими правами, а также файлы нелегального содержания!