[ Сегодня идет свободное скачивание без начисления Download ]


Статистика раздачи
Нет
 
   
 
Top  
 
 
-Заложник / Captive (2013) WEB-DLRip«How Much Good Can a Bad Man Do?»- Русское название: Заложник
Оригинальное название: Captive
Год выпуска: 2013
Производство: Канада / Syndicate Seven Films
Жанр: Боевик, Триллер
Перевод: Любительский (одноголосый) [den904], перевод [Janetta]
Субтитры: Вшитые отключаемые
Язык субтитров: Aнглийский
Дата мировой премьеры: 14 мая 2013
Режиссер: Джордан Браун, Джонатан Барнетт
Продюсер: Джессика Ли, Марк Чишолм, Андреа Идальго
Актеры: Эрик Брекер, Кори Ремпель, Далиас Блейк, Кендра Андерсон, Золтан Бедэй, Чарльз Цуккерман, Дж.П. Райдер, Джеймс Р. Бейлис, Ромуальд Ивер
Описание фильма:
Детектив, разыскиваемый за убийство, похищает опытного журналиста и держит его в плену.У него всего одна безумная ночь, чтобы выявить и уничтожить коррупцию, поглотившую весь город.

Продолжительность: 01:28:21
Качество видео: WEB-DLRip
Видеокодек: MPEG-4 AVC/H.264
Битрейт видео: ~2848 Kbit/s
Размер кадра: 1280 x 532
Aудио #1: AC3, 48,0 КHz, 5.1, 384 Kbit/s (Русский одноголосый)
Aудио #2: AC3, 48,0 КHz, 5.1, 384 Kbit/s (Оригинальный английский)

MediaInfo

Общее
Уникальный идентификатор : 179200587543759762790320100028850550478 (0x86D0C71B4B65A960A2A2BC802612B6CE)
Полное имя : D:\Торренты\Заложник.2013.WEB-DL.mkv
Формат : Matroska
Размер файла : 2,27 Гбайт
Продолжительность : 1 ч. 28 м.
Общий поток : 3690 Кбит/сек
Дата кодирования : UTC 2013-06-02 19:15:33
Программа кодирования : mkvmerge v2.9.8 ('C'est le bon')
Библиотека кодирования : libebml v0.7.9 + libmatroska v0.8.1
Видео
Идентификатор : 1
Формат : AVC
Формат/Информация : Advanced Video Codec
Профиль формата : High@L4.1
Параметр CABAC формата : Да
Параметр ReFrames формата : 8 кадров
Идентификатор кодека : V_MPEG4/ISO/AVC
Продолжительность : 1 ч. 28 м.
Битрейт : 2848 Кбит/сек
Номинальный битрейт : 3000 Кбит/сек
Ширина : 1280 пикс.
Высота : 532 пикс.
Соотношение сторон : 2,40:1
Частота кадров : 23,976 кадр/сек
Цветовое пространство : YUV
Подвыборка цветности : 4:2:0
Битовая глубина : 8 бит
Тип развёртки : Прогрессивная
Бит/(Пиксели*Кадры) : 0.174
Размер потока : 1,75 Гбайт (77%)
Библиотека кодирования : x264 core 130 r2273 b3065e6
Настройки программы : cabac=1 / ref=8 / deblock=1:0:0 / analyse=0x3:0x133 / me=umh / subme=9 / psy=1 / psy_rd=1.00:0.00 / mixed_ref=1 / me_range=16 / chroma_me=1 / trellis=2 / 8x8dct=1 / cqm=0 / deadzone=21,11 / fast_pskip=1 / chroma_qp_offset=-2 / threads=16 / lookahead_threads=1 / sliced_threads=0 / nr=0 / decimate=1 / interlaced=0 / bluray_compat=0 / constrained_intra=0 / bframes=3 / b_pyramid=2 / b_adapt=2 / b_bias=0 / direct=3 / weightb=1 / open_gop=0 / weightp=2 / keyint=240 / keyint_min=23 / scenecut=40 / intra_refresh=0 / rc_lookahead=60 / rc=abr / mbtree=1 / bitrate=3000 / ratetol=1.0 / qcomp=0.60 / qpmin=0 / qpmax=69 / qpstep=4 / ip_ratio=1.40 / aq=1:1.00
Язык : English
Аудио #1
Идентификатор : 2
Формат : AC-3
Формат/Информация : Audio Coding 3
Расширение режима : CM (complete main)
Идентификатор кодека : A_AC3
Продолжительность : 1 ч. 28 м.
Вид битрейта : Постоянный
Битрейт : 384 Кбит/сек
Каналы : 6 каналов
Расположение каналов : Front: L C R, Side: L R, LFE
Частота : 48,0 КГц
Битовая глубина : 16 бит
Метод сжатия : С потерями
Размер потока : 242 Мбайт (10%)
Язык : Russian
Аудио #2
Идентификатор : 3
Формат : AC-3
Формат/Информация : Audio Coding 3
Расширение режима : CM (complete main)
Идентификатор кодека : A_AC3
Продолжительность : 1 ч. 28 м.
Вид битрейта : Постоянный
Битрейт : 384 Кбит/сек
Каналы : 6 каналов
Расположение каналов : Front: L C R, Side: L R, LFE
Частота : 48,0 КГц
Битовая глубина : 16 бит
Метод сжатия : С потерями
Размер потока : 242 Мбайт (10%)
Язык : English
Текст
Идентификатор : 4
Формат : UTF-8
Идентификатор кодека : S_TEXT/UTF8
Идентификатор кодека/Информация : UTF-8 Plain Text
Язык : English
Меню
00:00:00.000 : en:Chapter 01
00:08:19.000 : en:Chapter 02
00:19:31.000 : en:Chapter 03
00:28:03.000 : en:Chapter 04
00:36:19.000 : en:Chapter 05
00:44:42.000 : en:Chapter 06
00:53:30.000 : en:Chapter 07
01:05:17.000 : en:Chapter 08
01:16:57.000 : en:Chapter 09
01:24:22.000 : en:Chapter 10
Скриншоты:
Время раздачи: 24/7 по возможности

[Цитировать]

Топик был перенесен из форума Новинки кинопроката в форум Боевик
Henkok



Показать сообщения:    

Текущее время: 10-Дек 13:48

Часовой пояс: UTC + 3


Вы не можете начинать темы
Вы не можете отвечать на сообщения
Вы не можете редактировать свои сообщения
Вы не можете удалять свои сообщения
Вы не можете голосовать в опросах
Вы не можете прикреплять файлы к сообщениям
Вы не можете скачивать файлы

!ВНИМАНИЕ!
Сайт не предоставляет электронные версии произведений, а занимается лишь коллекционированием и каталогизацией ссылок, присылаемых и публикуемых на форуме нашими читателями. Если вы являетесь правообладателем какого-либо представленного материала и не желаете, чтобы ссылка на него находилась в нашем каталоге, свяжитесь с нами, и мы незамедлительно удалим ее. Файлы для обмена на трекере предоставлены пользователями сайта, и администрация не несет ответственности за их содержание. Просьба не заливать файлы, защищенные авторскими правами, а также файлы нелегального содержания!