[ Сегодня идет свободное скачивание без начисления Download ]


Статистика раздачи
Нет
 
   
 
Top  
 
 
-Джек – покоритель великанов / Jack The Giant Slayer (2013) BDRip- Русское название: Джек – покоритель великанов
Оригинальное название: Jack The Giant Slayer
Год выпуска: 2013
Производство: США / Bad Hat Harry Productions, Big Kid Pictures, Legendary Pictures
Жанр: Фэнтези, драма, мелодрама, приключения
Перевод: Дублированный (чистый звук)
Язык субтитров: Английский
Субтитры: Вшитые отключаемые
Дата мировой премьеры: 27 февраля 2013
Дата российской премьеры: 21 марта 2013, «Каро-Премьер»
Дата выхода DVD релиза: 20 июня 2013, «CP Дистрибуция»
Режиссер: Брайан Сингер / Bryan Singer
Актеры: Николас Холт, Эван МакГрегор, Билл Найи, Стэнли Туччи, Иэн МакШейн, Уорвик Дэвис, Эдди Марсан, Юэн Бремнер, Элинор Томлинсон, Джон Кассир
Описание фильма:
История начинается с похищения принцессы, что грозит нарушить хрупкий мир между людьми и великанами. Юный фермер возглавляет вылазку в царство гигантов в надежде спасти девушку.

Продолжительность: 01:54:20
Качество видео: BDRip-AVC
Видео: MPEG-4 AVC/H.264, 1032x430 (2,40:1), 23,976 fps, 2293 Кbps, 0.216 bit/pixel
Аудио: 48 kHz, AC3 Dolby Digital, 3/2 (L,C,R,l,r) + LFE ch, 448.00 kbps

MI

Общее
Уникальный идентификатор : 202775419618381938144177329902458405834 (0x988D20113A466599B25791A89F9683CA)
Полное имя : Dzhek.Pokoritel'.Velikanov.2013.D.BDRip.x264.potroks.mkv
Формат : Matroska
Версия формата : Version 2
Размер файла : 2,19 Гбайт
Продолжительность : 1 ч. 54 м.
Общий поток : 2742 Кбит/сек
Название фильма : -=POTROKS=-
Дата кодирования : UTC 2013-06-02 18:00:50
Программа кодирования : mkvmerge v5.9.0 ('On The Loose') built on Dec 15 2012 16:39:58
Библиотека кодирования : libebml v1.3.0 + libmatroska v1.4.0
Видео
Идентификатор : 1
Формат : AVC
Формат/Информация : Advanced Video Codec
Профиль формата : High@L4.1
Параметр CABAC формата : Да
Параметр ReFrames формата : 10 кадров
Идентификатор кодека : V_MPEG4/ISO/AVC
Продолжительность : 1 ч. 54 м.
Битрейт : 2293 Кбит/сек
Ширина : 1032 пикселя
Высота : 430 пикселей
Соотношение сторон : 2,40:1
Режим частоты кадров : Постоянный
Частота кадров : 23,976 кадра/сек
Цветовое пространство : YUV
Субдискретизация насыщенности : 4:2:0
Битовая глубина : 8 бит
Тип развёртки : Прогрессивная
Бит/(Пиксели*Кадры) : 0.216
Размер потока : 1,79 Гбайт (82%)
Заголовок : Jack The Giant Slayer
Библиотека кодирования : x264 core 125 r2208 d9d2288
Настройки программы : cabac=1 / ref=10 / deblock=1:-2:-1 / analyse=0x3:0x133 / me=umh / subme=9 / psy=1 / psy_rd=1.08:0.00 / mixed_ref=1 / me_range=48 / chroma_me=1 / trellis=2 / 8x8dct=1 / cqm=0 / deadzone=21,11 / fast_pskip=0 / chroma_qp_offset=-2 / threads=9 / lookahead_threads=1 / sliced_threads=0 / nr=0 / decimate=1 / interlaced=0 / bluray_compat=0 / constrained_intra=0 / bframes=11 / b_pyramid=2 / b_adapt=2 / b_bias=0 / direct=3 / weightb=1 / open_gop=0 / weightp=2 / keyint=240 / keyint_min=23 / scenecut=40 / intra_refresh=0 / rc_lookahead=150 / rc=2pass / mbtree=1 / bitrate=2293 / ratetol=1.0 / qcomp=0.70 / qpmin=0 / qpmax=69 / qpstep=4 / cplxblur=20.0 / qblur=0.5 / vbv_maxrate=20000 / vbv_bufsize=20000 / nal_hrd=none / ip_ratio=1.35 / aq=1:0.70
Язык : English
Default : Да
Forced : Нет
Аудио
Идентификатор : 2
Формат : AC-3
Формат/Информация : Audio Coding 3
Расширение режима : CM (complete main)
Параметр Endianness формата : Big
Идентификатор кодека : A_AC3
Продолжительность : 1 ч. 54 м.
Вид битрейта : Постоянный
Битрейт : 448 Кбит/сек
Каналы : 6 каналов
Расположение каналов : Front: L C R, Side: L R, LFE
Частота : 48,0 КГц
Битовая глубина : 16 бит
Метод сжатия : С потерями
Размер потока : 366 Мбайт (16%)
Заголовок : чистый звук
Язык : Russian
Default : Да
Forced : Да
Текст
Идентификатор : 3
Формат : UTF-8
Идентификатор кодека : S_TEXT/UTF8
Идентификатор кодека/Информация : UTF-8 Plain Text
Язык : English
Default : Нет
Forced : Нет
Меню
00:00:00.000 : en:00:00:00.000
00:10:21.371 : en:00:10:21.371
00:19:23.746 : en:00:19:23.746
00:29:52.207 : en:00:29:52.207
00:38:55.375 : en:00:38:55.375
00:49:24.879 : en:00:49:24.879
00:59:35.489 : en:00:59:35.489
01:09:26.287 : en:01:09:26.287
01:20:39.168 : en:01:20:39.168
01:29:51.303 : en:01:29:51.303
01:39:02.812 : en:01:39:02.812
01:45:57.726 : en:01:45:57.726

log@x.264

x264 [info]: frame I:1590 Avg QP:15.68 size: 71603
x264 [info]: frame P:40643 Avg QP:17.80 size: 22874
x264 [info]: frame B:122264 Avg QP:20.72 size: 7543
x264 [info]: consecutive B-frames: 2.7% 4.1% 13.4% 35.2% 15.8% 20.6% 3.2% 3.0% 0.7% 0.4% 0.3% 0.5%
x264 [info]: mb I I16..4: 8.4% 69.6% 22.0%
x264 [info]: mb P I16..4: 1.5% 9.6% 1.9% P16..4: 38.7% 18.7% 17.2% 1.7% 0.6% skip:10.0%
x264 [info]: mb B I16..4: 0.1% 1.1% 0.4% B16..8: 37.5% 10.2% 3.6% direct: 5.7% skip:41.4% L0:40.0% L1:44.0% BI:16.0%
x264 [info]: 8x8 transform intra:72.3% inter:58.2%
x264 [info]: direct mvs spatial:95.6% temporal:4.4%
x264 [info]: coded y,uvDC,uvAC intra: 84.8% 78.0% 50.9% inter: 24.7% 20.2% 3.5%
x264 [info]: i16 v,h,dc,p: 35% 14% 8% 43%
x264 [info]: i8 v,h,dc,ddl,ddr,vr,hd,vl,hu: 9% 10% 4% 9% 14% 13% 14% 12% 14%
x264 [info]: i4 v,h,dc,ddl,ddr,vr,hd,vl,hu: 8% 8% 4% 10% 16% 14% 14% 12% 14%
x264 [info]: i8c dc,h,v,p: 42% 25% 18% 15%
x264 [info]: Weighted P-Frames: Y:7.1% UV:2.5%
x264 [info]: ref P L0: 53.5% 14.3% 12.1% 6.2% 3.6% 3.1% 2.3% 1.5% 1.2% 1.6% 0.4% 0.0%
x264 [info]: ref B L0: 79.8% 8.2% 4.3% 2.5% 1.6% 1.1% 1.5% 0.7% 0.3%
x264 [info]: ref B L1: 93.6% 6.4%
x264 [info]: kb/s:2292.10
Скриншоты:


Время раздачи: 24/7

[Цитировать]

Топик был перенесен из форума Новинки кинопроката в форум Фэнтези
Henkok



Показать сообщения:    

Текущее время: 09-Дек 14:35

Часовой пояс: UTC + 3


Вы не можете начинать темы
Вы не можете отвечать на сообщения
Вы не можете редактировать свои сообщения
Вы не можете удалять свои сообщения
Вы не можете голосовать в опросах
Вы не можете прикреплять файлы к сообщениям
Вы не можете скачивать файлы

!ВНИМАНИЕ!
Сайт не предоставляет электронные версии произведений, а занимается лишь коллекционированием и каталогизацией ссылок, присылаемых и публикуемых на форуме нашими читателями. Если вы являетесь правообладателем какого-либо представленного материала и не желаете, чтобы ссылка на него находилась в нашем каталоге, свяжитесь с нами, и мы незамедлительно удалим ее. Файлы для обмена на трекере предоставлены пользователями сайта, и администрация не несет ответственности за их содержание. Просьба не заливать файлы, защищенные авторскими правами, а также файлы нелегального содержания!