[ Сегодня идет свободное скачивание без начисления Download ]


Статистика раздачи
Нет
 
   
 
Top  
 
 
-Разговор (2012) BDRip- Русское название: Разговор
Год выпуска: 2012
Производство: Россия - Интерфест, КВФильм-Продакшн, Юрхаус
Жанр: Драма
Дата мировой премьеры: 31 августа 2012
Дата российской премьеры: 11 апреля 2013, «Каропрокат»
Дата выхода DVD релиза: 27 мая 2013, «Новый Диск»
Режиссер: Сергей Комаров
Продюсер: Ренат Давлетьяров, Александр Котелевский, Владимир Карев
Актеры: Гоша Куценко, Анна Канарис, Владимир Горюшин, Игорь Кистол, Александр Сирин, Георгий Тополага
Описание фильма:
Борис приходит в себя в тюрьме. Оказывается, что три дня назад он сбил человека. Но вспомнить аварию и обстоятельства, предшествующие ей, Борису не удается даже на допросе. Как все произошло? Кого он сбил? Головоломка начинает складываться, когда на свидание к Борису приходит жена. В разговоре с ней он узнает, что наказан за преступление, которое совершил не сейчас. А наказание это намного страшнее тюремного заключения.

Продолжительность: 01:17:11
Качество видео: BDRip 1080p
Видеокодек: MPEG-4 AVC/H.264
Видео: H264, 11.0 Мбит/с, 1920x816, 24,000 кадра/сек
Аудио #1: AC3, 5.1, 640 кбит/с
Аудио #2: DTS, 5.1, 1536 кбит/с
Сохранены оригинальные чаптеры как на Blu-Ray

MediaInfo:

Общее
Уникальный идентификатор : 175427654537210288533339423365523381306 (0x83FA2325BE8E87F8B2633F24DBB11C3A)
Полное имя : D:\Video\Razgovor.2012.BDRip.1080p.ac3.dts.Rus.mkv
Формат : Matroska
Версия формата : Version 2
Размер файла : 7,09 Гбайт
Продолжительность : 1 ч. 17 м.
Общий поток : 13,1 Мбит/сек
Название фильма : Разговор (MediaClub-kaspr)
Дата кодирования : UTC 2013-05-25 04:54:19
Программа кодирования : mkvmerge v5.7.0 ('The Whirlwind') built on Aug 7 2012 14:11:40
Библиотека кодирования : libebml v1.2.3 + libmatroska v1.3.0
Видео
Идентификатор : 1
Формат : AVC
Формат/Информация : Advanced Video Codec
Профиль формата : High@L4.1
Параметр CABAC формата : Да
Параметр ReFrames формата : 4 кадра
Идентификатор кодека : V_MPEG4/ISO/AVC
Продолжительность : 1 ч. 17 м.
Битрейт : 11,0 Мбит/сек
Ширина : 1920 пикселей
Высота : 816 пикселей
Соотношение сторон : 2,35:1
Частота кадров : 24,000 кадра/сек
Цветовое пространство : YUV
Субдискретизация насыщенности : 4:2:0
Битовая глубина : 8 бит
Тип развёртки : Прогрессивная
Бит/(Пиксели*Кадры) : 0.293
Размер потока : 5,79 Гбайт (82%)
Заголовок : Разговор (MediaClub-kaspr)
Библиотека кодирования : x264 core 130 r2273 b3065e6
Настройки программы : cabac=1 / ref=4 / deblock=1:-3:-3 / analyse=0x3:0x133 / me=umh / subme=11 / psy=1 / psy_rd=1.00:0.10 / mixed_ref=1 / me_range=32 / chroma_me=1 / trellis=2 / 8x8dct=1 / cqm=0 / deadzone=21,11 / fast_pskip=0 / chroma_qp_offset=-3 / threads=12 / lookahead_threads=1 / sliced_threads=0 / nr=0 / decimate=0 / interlaced=0 / bluray_compat=0 / constrained_intra=0 / bframes=6 / b_pyramid=2 / b_adapt=2 / b_bias=0 / direct=3 / weightb=1 / open_gop=0 / weightp=2 / keyint=240 / keyint_min=22 / scenecut=40 / intra_refresh=0 / rc=2pass / mbtree=0 / bitrate=11015 / ratetol=1.0 / qcomp=0.60 / qpmin=0 / qpmax=69 / qpstep=4 / cplxblur=20.0 / qblur=0.5 / ip_ratio=1.40 / pb_ratio=1.30 / aq=1:1.00
Default : Да
Forced : Нет
Аудио #1
Идентификатор : 2
Формат : AC-3
Формат/Информация : Audio Coding 3
Расширение режима : CM (complete main)
Идентификатор кодека : A_AC3
Продолжительность : 1 ч. 17 м.
Вид битрейта : Постоянный
Битрейт : 640 Кбит/сек
Каналы : 6 каналов
Расположение каналов : Front: L C R, Side: L R, LFE
Частота : 48,0 КГц
Битовая глубина : 16 бит
Метод сжатия : С потерями
Размер потока : 353 Мбайт (5%)
Заголовок : AC3
Язык : Russian
Default : Да
Forced : Да
Аудио #2
Идентификатор : 3
Формат : DTS
Формат/Информация : Digital Theater Systems
Идентификатор кодека : A_DTS
Продолжительность : 1 ч. 17 м.
Вид битрейта : Постоянный
Битрейт : 1510 Кбит/сек
Каналы : 6 каналов
Расположение каналов : Front: L C R, Side: L R, LFE
Частота : 48,0 КГц
Битовая глубина : 16 бит
Метод сжатия : С потерями
Размер потока : 834 Мбайт (11%)
Заголовок : DTS
Язык : Russian
Default : Нет
Forced : Нет
Меню
00:00:00.000 : en:Chapter 01
00:01:06.916 : en:Chapter 02
00:11:40.208 : en:Chapter 03
00:14:26.291 : en:Chapter 04
00:28:28.333 : en:Chapter 05
00:35:18.083 : en:Chapter 06
00:46:51.083 : en:Chapter 07
00:57:20.000 : en:Chapter 08
01:05:53.375 : en:Chapter 09

Рецензия, отзыв о фильме:

Преступление и наказание
Постановщик Сергей Комаров не особо известен широкой публике — начинал он в конце девяностых с документальных лент (в том числе на остросоциальные темы), а в последнее время снимал сериалы. Такая поденщина, позволяющая держаться на плаву, чтобы в удовольствие задумывать что-то по-настоящему интересное.
Новая работа Комарова, драма с элементами триллера «Разговор» — потенциально очень занимательный и качественный продукт российского кинопрома. В центре сюжета — Борис (Гоша Куценко), у которого начисто отшибло память. Герой приходит в себя в тюрьме. Выясняется, что три дня назад он сбил человека.
Однако кого именно сбил и подробности произошедшего Борис совершенно не помнит. Картина постепенно проясняется, когда ему устраивают свидание с женой (Анна Канарис). Оказывается, что герой в тюрьму попал не только за преступление трехдневной давности, но и за те грехи, которые он совершил раньше.
Комаров снял весьма квалифицированную драму с элементами триллера и четкой моралью: расплата за преступления неминуема и настигнет человека в любом случае. Порадовала работа сценаристов Сергея Калужанова и Ирины Пивоваровой (в их послужном списке «Мамы», «Пять невест» и сериал «Побег»), потрудившихся на славу.
В картине присутствует интрига, а внутренняя динамика сюжета не дает заскучать. «Разговор» — один из немногих российских фильмов за последнее время, который посмотреть не стыдно. Во многом благодаря игре Гоши Куценко в том числе. Куценко в очередной раз доказал свою разноплановость и актерскую состоятельность. Остальной каст играет под стать.
Если есть желание посмотреть отечественный и при этом добротный и неглупый фильм, то «Разговор» подойдет как нельзя лучше.
8 из 10
Скриншоты:
Время раздачи: с 10:00 до 20:00 (GMT+2) - до 10 скачавших

[Цитировать]



Показать сообщения:    

Текущее время: 11-Дек 07:10

Часовой пояс: UTC + 3


Вы не можете начинать темы
Вы не можете отвечать на сообщения
Вы не можете редактировать свои сообщения
Вы не можете удалять свои сообщения
Вы не можете голосовать в опросах
Вы не можете прикреплять файлы к сообщениям
Вы не можете скачивать файлы

!ВНИМАНИЕ!
Сайт не предоставляет электронные версии произведений, а занимается лишь коллекционированием и каталогизацией ссылок, присылаемых и публикуемых на форуме нашими читателями. Если вы являетесь правообладателем какого-либо представленного материала и не желаете, чтобы ссылка на него находилась в нашем каталоге, свяжитесь с нами, и мы незамедлительно удалим ее. Файлы для обмена на трекере предоставлены пользователями сайта, и администрация не несет ответственности за их содержание. Просьба не заливать файлы, защищенные авторскими правами, а также файлы нелегального содержания!