[ Сегодня идет свободное скачивание без начисления Download ]


Статистика раздачи
Нет
 
   
 
Top  
 
 
-Смертельный номер / Death Defying Acts (2007) DVDRip [H.264] -«Любовь неизбежна.»- Русское название: Смертельный номер
Оригинальное название: Death Defying Acts
Год выпуска: 2007
Жанр: Триллер, Драма, Мелодрама
Производство: Великобритания, Австралия / Australian Film Finance Corporation (AFFC), BBC Films, Cinemakers, Film Finance Corporation, Macgowan Films, Myriad Pictures, Myriad Pictures Inc., Zephyr Films Ltd.
Описание фильма:
Во время гастролей по Британии в 1926 году великий иллюзионист Гарри Гудини вспыхивает страстью к жительнице Эдинбурга, женщине-медиуму. Она вызывается вступить в контакт с духом погибшей матери Гудини, за что тот посулил щедрую награду. Но ее способности — по большей степени шарлатанство, и в результате все идет совсем не по плану.
Режиссер: Джиллиан Армстронг
Сценарий: Тони Гризони, Брайан Уорд
Продюсер: Крис Кёрлинг, Мэриэн МакГовэн, Кэтерин Армфелт
Актеры: Гай Пирс, Кэтрин Зета-Джонс, Тимоти Сполл, Сирша Ронан, Малкольм Шилдс, Лени Харпер, Ральф Райч, Оливия Дарнли, Энтони О’Доннелл, Билли Макколл
Продолжительность: 01:32:31
Перевод: Дублированный (МОСФИЛЬМ-мастер, 2008)

Дата мировой премьеры: 13 сентября 2007
Дата российской премьеры: 24 апреля 2008, «Пирамида»
Видеокодек: MPEG-4 AVC/H.264
Битрейт видео: ~2320 Кбит/сек
Размер кадра: 720x304
Качество видео: DVDRip
Аудиокодек: AC3 5.1
Битрейт аудио: 384 Кбит/сек

MediaInfo:

General
Unique ID : 205403075222883286452537389701739231545 (0x9A87317DB02437E8B0D659FAAC6EB939)
Complete name : H:\Downloads\Смертельный номер.mkv
Format : Matroska
Format version : Version 4 / Version 2
File size : 1.75 GiB
Duration : 1h 32mn
Overall bit rate : 2 706 Kbps
Encoded date : UTC 2013-06-02 12:24:52
Writing application : mkvmerge v6.0.0 ('Coming Up For Air') built on Jan 20 2013 09:52:00
Writing library : libebml v1.3.0 + libmatroska v1.4.0
Video
ID : 1
Format : AVC
Format/Info : Advanced Video Codec
Format profile : High@L3.0
Format settings, CABAC : Yes
Format settings, ReFrames : 8 frames
Codec ID : V_MPEG4/ISO/AVC
Duration : 1h 32mn
Bit rate : 2 320 Kbps
Width : 720 pixels
Height : 304 pixels
Display aspect ratio : 2.35:1
Frame rate mode : Constant
Frame rate : 25.000 fps
Color space : YUV
Chroma subsampling : 4:2:0
Bit depth : 8 bits
Scan type : Progressive
Bits/(Pixel*Frame) : 0.424
Stream size : 1.47 GiB (84%)
Title : Death Defying Acts
Writing library : x264 core 125 r2208 d9d2288
Encoding settings : cabac=1 / ref=8 / deblock=1:-1:-1 / analyse=0x3:0x133 / me=umh / subme=9 / psy=1 / psy_rd=1.00:0.10 / mixed_ref=1 / me_range=32 / chroma_me=1 / trellis=2 / 8x8dct=1 / cqm=0 / deadzone=21,11 / fast_pskip=0 / chroma_qp_offset=-3 / threads=6 / lookahead_threads=1 / sliced_threads=0 / nr=0 / decimate=1 / interlaced=0 / bluray_compat=0 / constrained_intra=0 / bframes=3 / b_pyramid=2 / b_adapt=2 / b_bias=0 / direct=3 / weightb=1 / open_gop=0 / weightp=2 / keyint=250 / keyint_min=25 / scenecut=40 / intra_refresh=0 / rc_lookahead=60 / rc=2pass / mbtree=1 / bitrate=2320 / ratetol=1.0 / qcomp=0.60 / qpmin=10 / qpmax=51 / qpstep=4 / cplxblur=20.0 / qblur=0.5 / ip_ratio=1.40 / aq=1:1.00
Language : English
Default : Yes
Forced : No
Audio
ID : 2
Format : AC-3
Format/Info : Audio Coding 3
Mode extension : CM (complete main)
Format settings, Endianness : Big
Codec ID : A_AC3
Duration : 1h 32mn
Bit rate mode : Constant
Bit rate : 384 Kbps
Channel(s) : 6 channels
Channel positions : Front: L C R, Side: L R, LFE
Sampling rate : 48.0 KHz
Bit depth : 16 bits
Compression mode : Lossy
Stream size : 254 MiB (14%)
Title : Дублированный
Language : Russian
Default : Yes
Forced : No
Скриншоты: Время раздачи: с 13:00 до 01:00 по Москве (выходные круглосуточно), до 10 скачавших

[Цитировать]



Показать сообщения:    

Текущее время: 08-Дек 07:03

Часовой пояс: UTC + 3


Вы не можете начинать темы
Вы не можете отвечать на сообщения
Вы не можете редактировать свои сообщения
Вы не можете удалять свои сообщения
Вы не можете голосовать в опросах
Вы не можете прикреплять файлы к сообщениям
Вы не можете скачивать файлы

!ВНИМАНИЕ!
Сайт не предоставляет электронные версии произведений, а занимается лишь коллекционированием и каталогизацией ссылок, присылаемых и публикуемых на форуме нашими читателями. Если вы являетесь правообладателем какого-либо представленного материала и не желаете, чтобы ссылка на него находилась в нашем каталоге, свяжитесь с нами, и мы незамедлительно удалим ее. Файлы для обмена на трекере предоставлены пользователями сайта, и администрация не несет ответственности за их содержание. Просьба не заливать файлы, защищенные авторскими правами, а также файлы нелегального содержания!